↑↓torrent.by
Поиск
Логин:  Регистрация
Пароль:

Охота на киллера / Cult Killer (2024) BDRip 1080p от селезень | D | Akimbo Production

download Скачать торрент-файл   magnet Магнитная ссылка Размер: 8.26 GB Добавлен: 2024-06-10 05:00
Пиры будут получены из сети DHT
Последний сидер был замечен вчера в 20:53
Информация о фильме Название: Охота на киллера Оригинальное название: Cult Killer Год выхода: 2024 Жанр: Триллер, драма, криминал, детектив Режиссер: Джон Кейес В ролях: Шелли Хенниг, Элис Ив, Антонио Бандерас, Олуэн Фуэре, Ник Даннинг, Ким ДеЛонги, Пол Рейд, Мэттью Томпкинс, Кваку Форчун, Софи Кэннелл Описание: Когда убивают известного частного детектива Майка Таллини, за дело берется его протеже Кэсси Холт. В свое время он стал единственным человеком, который отнесся к Кэсси с уважением и заботой, помог ей завязать с мрачным прошлым. Поэтому после его жестокого убийства Кэсси решительно настроена найти виновного, лишившего ее самого дорогого. Во время расследования она вынуждена сотрудничать с убийцей, чтобы раскрыть ужасные тайны города и восстановить справедливость. «Охота на киллера» (2024) — криминальный триллер с Антонио Бандерасом в главной роли. Страна: США Студия: BondIt, Buffalo 8 Productions, Highland Myst Entertainment Inc., TYM Productions, Yale Productions Продолжительность: 01:44:55 Перевод: Профессиональный (полное дублирование) | Akimbo Production Субтитры: Русские (Full), Английские (Full, SDH) Файл Формат: Matroska Качество: BDRip 1080p | Исх.Cult.Killer.2024.MULTi.COMPLETE.BLURAY-XORBiTANT Видео: 1920x804 at 23.976 fps, x264@L4.1, ~10000 kbps Аудио 1: AC3, 6 ch, ~640 kbps - | Русский | | DUB Аудио 2: AC3, 6 ch, ~640 kbps - | Английский | | Original Формат субтитров: softsub (SRT)
[+] M/IGeneral Unique ID : 331894213652829259762279177946144745060 (0xF9B0801D1DD8BF7676CB3BF1DD9CA664) Complete name : H:VideoHCult.Killer.2024.DUB.BDRip.1080p.x264.seleZen.mkv Format : Matroska Format version : Version 4 File size : 8.26 GiB Duration : 1 h 44 min Overall bit rate : 11.3 Mb/s Frame rate : 23.976 FPS Movie name : Cult.Killer.2024.DUB.BDRip.1080p.x264.seleZen Encoded date : 2024-06-09 14:05:51 UTC Writing application : mkvmerge v80.0 ('Roundabout') 64-bit Writing library : libebml v1.4.4 + libmatroska v1.7.1 Cover : Yes Attachments : cover.jpg / small_cover.jpg Video ID : 1 Format : AVC Format/Info : Advanced Video Codec Format profile : High@L4.1 Format settings : CABAC / 5 Ref Frames Format settings, CABAC : Yes Format settings, Reference : 5 frames Codec ID : V_MPEG4/ISO/AVC Duration : 1 h 44 min Bit rate : 10.0 Mb/s Width : 1 920 pixels Height : 804 pixels Display aspect ratio : 2.39:1 Frame rate mode : Constant Frame rate : 23.976 (24000/1001) FPS Color space : YUV Chroma subsampling : 4:2:0 Bit depth : 8 bits Scan type : Progressive Bits/(Pixel*Frame) : 0.270 Stream size : 7.32 GiB (89%) Writing library : x264 core 164 r3164 seleZen Encoding settings : cabac=1 / ref=5 / deblock=1:-2:-2 / analyse=0x3:0x133 / me=umh / subme=11 / psy=1 / psy_rd=1.02:0.03 / mixed_ref=1 / me_range=48 / chroma_me=1 / trellis=2 / 8x8dct=1 / cqm=0 / deadzone=21,11 / fast_pskip=0 / chroma_qp_offset=-3 / threads=25 / lookahead_threads=6 / sliced_threads=0 / nr=0 / decimate=0 / interlaced=0 / bluray_compat=0 / constrained_intra=0 / bframes=10 / b_pyramid=2 / b_adapt=2 / b_bias=0 / direct=3 / weightb=1 / open_gop=0 / weightp=2 / keyint=240 / keyint_min=23 / scenecut=40 / intra_refresh=0 / rc_lookahead=60 / rc=2pass / mbtree=0 / bitrate=10006 / ratetol=1.0 / qcomp=0.60 / qpmin=0 / qpmax=51 / qpstep=4 / cplxblur=20.0 / qblur=0.5 / vbv_maxrate=50000 / vbv_bufsize=62500 / nal_hrd=none / filler=0 / ip_ratio=1.40 / pb_ratio=1.30 / aq=3:0.80 Language : English Default : Yes Forced : No Audio #1 ID : 2 Format : AC-3 Format/Info : Audio Coding 3 Commercial name : Dolby Digital Codec ID : A_AC3 Duration : 1 h 44 min Bit rate mode : Constant Bit rate : 640 kb/s Channel(s) : 6 channels Channel layout : L R C LFE Ls Rs Sampling rate : 48.0 kHz Frame rate : 31.250 FPS (1536 SPF) Compression mode : Lossy Stream size : 480 MiB (6%) Title : DUB -Akimbo Production Language : Russian Service kind : Complete Main Default : Yes Forced : No Audio #2 ID : 3 Format : AC-3 Format/Info : Audio Coding 3 Commercial name : Dolby Digital Codec ID : A_AC3 Duration : 1 h 44 min Bit rate mode : Constant Bit rate : 640 kb/s Channel(s) : 6 channels Channel layout : L R C LFE Ls Rs Sampling rate : 48.0 kHz Frame rate : 31.250 FPS (1536 SPF) Compression mode : Lossy Stream size : 480 MiB (6%) Title : Original Language : English Service kind : Complete Main Default : No Forced : No Text #1 ID : 4 Format : UTF-8 Codec ID : S_TEXT/UTF8 Codec ID/Info : UTF-8 Plain Text Duration : 1 h 38 min Bit rate : 96 b/s Frame rate : 0.258 FPS Count of elements : 1528 Stream size : 69.7 KiB (0%) Title : Full Language : Russian Default : No Forced : No Text #2 ID : 5 Format : UTF-8 Codec ID : S_TEXT/UTF8 Codec ID/Info : UTF-8 Plain Text Duration : 1 h 35 min Bit rate : 61 b/s Frame rate : 0.259 FPS Count of elements : 1481 Stream size : 43.0 KiB (0%) Title : Full Language : English Default : No Forced : No Text #3 ID : 6 Format : UTF-8 Codec ID : S_TEXT/UTF8 Codec ID/Info : UTF-8 Plain Text Duration : 1 h 35 min Bit rate : 65 b/s Frame rate : 0.276 FPS Count of elements : 1585 Stream size : 46.0 KiB (0%) Title : SDH Language : English Default : No Forced : No Menu 00:00:00.000 : Глава 1 00:08:30.426 : Глава 2 00:15:33.015 : Глава 3 00:25:15.555 : Глава 4 00:34:29.275 : Глава 5 00:41:46.545 : Глава 6 00:51:13.653 : Глава 7 00:59:31.442 : Глава 8 01:09:45.180 : Глава 9 01:18:37.671 : Глава 10 01:27:19.275 : Глава 11 01:35:48.409 : Глава 12
Релиз: Присоединяйся к: Кликай на баннеры.

Всего файлов в раздаче: 1 
Cult.Killer.2024.DUB.BDRip.1080p.x264.seleZen.mkv8.26 GB

Похожие раздачи по запросу - Охота
2024-06-17 magnet Охота / The Bad Shepherd (2024) WEB-DLRip от AR-Team | D 746.36 MB ↑ 0 ↓ 2
2024-06-16 magnet Охота / The Bad Shepherd (2024) WEB-DLRip-AVC | D | Локализованный видеоряд 1.46 GB ↑ 8 ↓ 0
2024-06-16 magnet Охота / The Bad Shepherd (2024) WEB-DLRip 720p от DoMiNo & селезень | D | Локализованная версия 1.67 GB ↑ 0 ↓ 0
2024-06-16 magnet Охота / The Bad Shepherd (2024) WEB-DLRip от ELEKTRI4KA | D 1.46 GB ↑ 0 ↓ 1
2024-06-16 magnet Охота / The Bad Shepherd (2024) WEB-DL 1080p от ELEKTRI4KA | D 3.62 GB ↑ 0 ↓ 1
2024-06-15 magnet Загадки века. Охота на «крота» (2024) WEBRip 498.55 MB ↑ 0 ↓ 0
2024-06-13 magnet Охота на киллера / Cult Killer (2024) BDRemux 1080p | D 23.84 GB ↑ 0 ↓ 0

Кто качает (только для создателя раздачи и модераторов): Локальные пиры отсутствуют

Комментарии


Зарегистрируйтесь чтобы добавить комментарий
Торрент клиент
byTorrent - программа для загрузки торрент-файлов.

Скачать byTorrent.exe (1,5 МБ)

Скачать byTorrent.zip (0,6 МБ)

Поддержи torrent.by
российских рублей
(300 российских рублей это 4$)

Обратная связь rss

End game ©