↑↓torrent.by
Поиск
Логин:  Регистрация
Пароль:

Месть Золушки / Cinderella's Revenge (2024) WEB-DLRip 720p от DoMiNo & селезень | P2 | ViruseProject

download Скачать торрент-файл   magnet Магнитная ссылка Размер: 2.09 GB Добавлен: 2024-06-10 05:00
Пиры будут получены из сети DHT
Последний сидер был замечен 2024-06-11 15:15
Информация о фильме Название: Месть Золушки Оригинальное название: Cinderella's Revenge Год выхода: 2024 Жанр: ужасы Режиссер: Энди Эдвардс В ролях: Наташа Хенстридж, Лорен Стерк, Стефани Лодж, Беатрис Флетчер, Меган Первис, Даррел Григгс, Рикардо Фрейтас, Зак Деверо, Майк Келсон, Раджпал Сингх и др. О фильме: Старая сказка с соответствующим названию поворотом сюжета - устав от выходок злой мачехи и противных сводных сестёр, трудолюбивая Золушка на время отказывается от хрустальных туфелек ради мести. Она понимает, что пока живы мачеха и сёстры, у неё нет ни единого шанса вновь встретиться с классическим прекрасным принцем, который безутешно ищет её после бала. Вершить кровавое правосудие Золушке поможет несколько модернизированная Фея-крёстная. Страна: Великобритания Продолжительность: 01:25:07 Перевод: Профессиональный (двухголосый, закадровый) | ViruseProject Субтитры: Английские Файл Формат: Matroska Качество: WEB-DLRip 720p Видео: 1280x720 at 23.976 fps, x264@L4.1, ~2749 kbps Аудио 1: AC3, 2 ch, ~384 kbps - | Русский | Аудио 2: AAC, 6 ch, ~384 kbps - | Английский | Формат субтитров: softsub (SRT) ***Рип от: -=DoMiNo=- *** Дебандинг, зерно.
[+] M/Ix264 : frame I:888 Avg QP:16.01 size:101849 x264 : frame P:23210 Avg QP:17.24 size: 32811 x264 : frame B:98348 Avg QP:19.82 size: 9184 General Unique ID : 299768021203271740000088737398079503822 (0xE185388900EB4E5A1B719BE9B0523DCE) Complete name : R:Cinderellas Revenge.2024.WEB-DLRip.720p.x264.seleZen.mkv Format : Matroska Format version : Version 4 File size : 2.09 GiB Duration : 1 h 25 min Overall bit rate : 3 523 kb/s Frame rate : 23.976 FPS Movie name : Cinderellas Revenge.2024.WEB-DLRip.720p.x264.seleZen Encoded date : 2024-06-09 18:20:37 UTC Writing application : mkvmerge v85.0 ('Shame For You') 64-bit Writing library : libebml v1.4.5 + libmatroska v1.7.1 Cover : Yes Attachments : cover.jpg / small_cover.jpg Video ID : 1 Format : AVC Format/Info : Advanced Video Codec Format profile : High@L4.1 Format settings : CABAC / 5 Ref Frames Format settings, CABAC : Yes Format settings, Reference : 5 frames Codec ID : V_MPEG4/ISO/AVC Duration : 1 h 25 min Bit rate : 2 749 kb/s Width : 1 280 pixels Height : 720 pixels Display aspect ratio : 16:9 Frame rate mode : Constant Frame rate : 23.976 (24000/1001) FPS Color space : YUV Chroma subsampling : 4:2:0 Bit depth : 8 bits Scan type : Progressive Bits/(Pixel*Frame) : 0.124 Stream size : 1.63 GiB (78%) Title : -=DoMiNo=- Writing library : x264 core 164 r3191 -DoMiNo Encoding settings : cabac=1 / ref=5 / deblock=1:-2:-1 / analyse=0x3:0x133 / me=umh / subme=10 / psy=1 / psy_rd=1.00:0.15 / mixed_ref=1 / me_range=32 / chroma_me=1 / trellis=2 / 8x8dct=1 / cqm=0 / deadzone=21,11 / fast_pskip=0 / chroma_qp_offset=-3 / threads=22 / lookahead_threads=3 / sliced_threads=0 / nr=0 / decimate=1 / interlaced=0 / bluray_compat=0 / constrained_intra=0 / bframes=9 / b_pyramid=2 / b_adapt=2 / b_bias=0 / direct=3 / weightb=1 / open_gop=0 / weightp=2 / keyint=250 / keyint_min=23 / scenecut=40 / intra_refresh=0 / rc_lookahead=60 / rc=crf / mbtree=0 / crf=19.5 / qcomp=0.60 / qpmin=0 / qpmax=69 / qpstep=4 / vbv_maxrate=50000 / vbv_bufsize=62500 / crf_max=0.0 / nal_hrd=none / filler=0 / ip_ratio=1.40 / pb_ratio=1.30 / aq=1:0.90 Language : English Default : Yes Forced : No Color range : Limited Color primaries : BT.709 Transfer characteristics : BT.709 Matrix coefficients : BT.709 Audio #1 ID : 2 Format : AC-3 Format/Info : Audio Coding 3 Commercial name : Dolby Digital Codec ID : A_AC3 Duration : 1 h 25 min Bit rate mode : Constant Bit rate : 384 kb/s Channel(s) : 2 channels Channel layout : L R Sampling rate : 48.0 kHz Frame rate : 31.250 FPS (1536 SPF) Compression mode : Lossy Stream size : 234 MiB (11%) Title : ViruseProject Language : Russian Service kind : Complete Main Default : Yes Forced : No Dialog Normalization : -31 dB dialnorm_Average : -31 dB dialnorm_Minimum : -31 dB dialnorm_Maximum : -31 dB Audio #2 ID : 3 Format : AAC LC Format/Info : Advanced Audio Codec Low Complexity Codec ID : A_AAC-2 Duration : 1 h 25 min Bit rate : 384 kb/s Channel(s) : 6 channels Channel layout : C L R Ls Rs LFE Sampling rate : 48.0 kHz Frame rate : 46.875 FPS (1024 SPF) Compression mode : Lossy Stream size : 235 MiB (11%) Language : English Default : No Forced : No Text ID : 4 Format : UTF-8 Codec ID : S_TEXT/UTF8 Codec ID/Info : UTF-8 Plain Text Duration : 1 h 24 min Bit rate : 55 b/s Frame rate : 0.280 FPS Count of elements : 1415 Stream size : 34.2 KiB (0%) Language : English Default : No Forced : No Menu 00:00:00.000 : en:Chapter 01 00:05:50.000 : en:Chapter 02 00:11:40.000 : en:Chapter 03 00:17:30.000 : en:Chapter 04 00:23:20.000 : en:Chapter 05 00:29:10.000 : en:Chapter 06 00:35:00.000 : en:Chapter 07 00:40:50.000 : en:Chapter 08 00:46:40.000 : en:Chapter 09 00:52:30.000 : en:Chapter 10 00:58:20.000 : en:Chapter 11 01:04:10.000 : en:Chapter 12 01:10:00.000 : en:Chapter 13 01:15:50.000 : en:Chapter 14 01:21:40.000 : en:Chapter 15
Релиз: Присоединяйся к: Кликай на баннеры.

Всего файлов в раздаче: 1 
Cinderellas Revenge.2024.WEB-DLRip.720p.x264.seleZen.mkv2.09 GB

Похожие раздачи по запросу - Месть
2024-06-09 magnet Месть Золушки / Cinderella's Revenge (2024) WEB-DL 1080p | ViruseProject 4.50 GB ↑ 0 ↓ 0
2024-06-09 magnet Месть / Fuk sau / Vengeance (2009) BDRip-AVC от msltel | A 2.23 GB ↑ 0 ↓ 0
2024-06-09 magnet Месть / Fuk sau / Vengeance (2009) BDRip 720p от msltel | A 4.13 GB ↑ 0 ↓ 0
2024-05-27 magnet Кровная месть [01-04 из 04] (2019) WEBRip-AVC от Files-х 2.24 GB ↑ 0 ↓ 0
2024-05-20 magnet Очень страшное кино. Зло вернулось / Жуткий наборчик 2: Месть Рэда Чэда / Scare Package II: Rad Chad's Revenge (2022) WEB-DLRip-AVC от DoMiNo & селезень | D | Локализованная версия 1.54 GB ↑ 0 ↓ 0
2024-05-20 magnet Очень страшное кино. Зло вернулось / Жуткий наборчик 2: Месть Рэда Чэда / Scare Package II: Rad Chad's Revenge (2022) WEB-DLRip от New-Team | D 1.46 GB ↑ 0 ↓ 0
2024-05-20 magnet Очень страшное кино. Зло вернулось / Жуткий наборчик 2: Месть Рэда Чэда / Scare Package II: Rad Chad's Revenge (2022) WEB-DL 1080p от ExKinoRay | D 3.95 GB ↑ 0 ↓ 0

Комментарии


Зарегистрируйтесь чтобы добавить комментарий
Торрент клиент
byTorrent - программа для загрузки торрент-файлов.

Скачать byTorrent.exe (1,5 МБ)

Скачать byTorrent.zip (0,6 МБ)

Поддержи torrent.by
российских рублей
(300 российских рублей это 4$)

Обратная связь rss

End game ©