↑↓torrent.by
Поиск
Логин:  Регистрация
Пароль:

Свет (2023) WEB-DLRip-AVC от DoMiNo & селезень

download Скачать торрент-файл   magnet Магнитная ссылка Размер: 1.32 GB Раздают: 0 Качают: 1 Добавлен: 2024-06-10 05:00
Пиры будут получены из сети DHT
Последний сидер был замечен 2024-06-12 15:34
Информация о фильме Оригинальное название: Свет Год выпуска: 2023 Жанр: Драма Режиссер: Антон Коломеец В ролях: Елена Яковлева, Дарья Коныжева, Милана Владыкина, Елена Жданова, Галина Алехина, Валерий Панков, Ян Ильвес, Дина Губайдуллина, Юлия Гоманюк, Павел Галынский О фильме: В жизни каждого человека наступает момент, когда он оглядывается назад, чтобы переосмыслить свое настоящее. У Татьяны есть все: семья, работа, друзья, но случайная встреча возвращает ее в прошлое, которое она так долго пыталась забыть. Драма о социальной работнице, которой приходится встретиться с прошлым и взглянуть на свою жизнь по-новому. Выпущено: Россия, WISH Media Продолжительность: 01:43:53 Язык: Русский Файл Формат: Matroska Качество: WEB-DLRip-AVC Видео: 1024x576 at 25.000 fps, x264@L4.1, ~1624 kbps Аудио: AAC, 2 ch, ~192 kbps - | Русский | Субтитры: Нет ***Рип от: -=DoMiNo=- *** Дебандинг, зерно.
[+] M/IGeneral Unique ID : 180940492175469560381419562334417422218 (0x881FDF072DC738D667B317150AE9878A) Complete name : I:Свет.2024.WEB-DLRip.x264.seleZen.mkv Format : Matroska Format version : Version 4 File size : 1.32 GiB Duration : 1 h 43 min Overall bit rate : 1 822 kb/s Frame rate : 25.000 FPS Movie name : Свет.2024.WEB-DLRip.x264.seleZen Encoded date : 2024-06-09 14:24:14 UTC Writing application : mkvmerge v85.0 ('Shame For You') 64-bit Writing library : libebml v1.4.5 + libmatroska v1.7.1 Cover : Yes Attachments : cover.jpg / small_cover.jpg Video ID : 1 Format : AVC Format/Info : Advanced Video Codec Format profile : High@L4.1 Format settings : CABAC / 9 Ref Frames Format settings, CABAC : Yes Format settings, Reference : 9 frames Codec ID : V_MPEG4/ISO/AVC Duration : 1 h 43 min Bit rate : 1 624 kb/s Width : 1 024 pixels Height : 576 pixels Display aspect ratio : 16:9 Frame rate mode : Constant Frame rate : 25.000 FPS Color space : YUV Chroma subsampling : 4:2:0 Bit depth : 8 bits Scan type : Progressive Bits/(Pixel*Frame) : 0.110 Stream size : 1.18 GiB (89%) Title : -=DoMiNo=- Writing library : x264 core 164 r3191 -DoMiNo Encoding settings : cabac=1 / ref=9 / deblock=1:-2:-1 / analyse=0x3:0x133 / me=umh / subme=10 / psy=1 / psy_rd=1.00:0.15 / mixed_ref=1 / me_range=32 / chroma_me=1 / trellis=2 / 8x8dct=1 / cqm=0 / deadzone=21,11 / fast_pskip=0 / chroma_qp_offset=-3 / threads=18 / lookahead_threads=4 / sliced_threads=0 / nr=0 / decimate=1 / interlaced=0 / bluray_compat=0 / constrained_intra=0 / bframes=12 / b_pyramid=2 / b_adapt=2 / b_bias=0 / direct=3 / weightb=1 / open_gop=0 / weightp=2 / keyint=250 / keyint_min=25 / scenecut=40 / intra_refresh=0 / rc_lookahead=60 / rc=crf / mbtree=0 / crf=18.5 / qcomp=0.60 / qpmin=0 / qpmax=69 / qpstep=4 / vbv_maxrate=50000 / vbv_bufsize=62500 / crf_max=0.0 / nal_hrd=none / filler=0 / ip_ratio=1.40 / pb_ratio=1.30 / aq=1:0.90 Language : Russian Default : Yes Forced : No Color range : Limited Color primaries : BT.709 Transfer characteristics : BT.709 Matrix coefficients : BT.709 Audio ID : 2 Format : AAC LC Format/Info : Advanced Audio Codec Low Complexity Codec ID : A_AAC-2 Duration : 1 h 43 min Bit rate : 192 kb/s Channel(s) : 2 channels Channel layout : L R Sampling rate : 48.0 kHz Frame rate : 46.875 FPS (1024 SPF) Compression mode : Lossy Stream size : 145 MiB (11%) Language : Russian Default : Yes Forced : No Menu 00:00:00.000 : en:Chapter 01 00:05:50.000 : en:Chapter 02 00:11:40.000 : en:Chapter 03 00:17:30.000 : en:Chapter 04 00:23:20.000 : en:Chapter 05 00:29:10.000 : en:Chapter 06 00:35:00.000 : en:Chapter 07 00:40:50.000 : en:Chapter 08 00:46:40.000 : en:Chapter 09 00:52:30.000 : en:Chapter 10 00:58:20.000 : en:Chapter 11 01:04:10.000 : en:Chapter 12 01:10:00.000 : en:Chapter 13 01:15:50.000 : en:Chapter 14 01:21:40.000 : en:Chapter 15 01:27:30.000 : en:Chapter 16 01:33:20.000 : en:Chapter 17 01:39:10.000 : en:Chapter 18
Релиз: Присоединяйся к: Кликай на баннеры.

Всего файлов в раздаче: 1 
Свет.2024.WEB-DLRip.x264.seleZen.mkv1.32 GB

Похожие раздачи по запросу - Свет
2024-06-12 magnet Свет (2023) WEB-DLRip от AR-Team 747.80 MB ↑ 0 ↓ 0
2024-06-10 magnet Свет (2023) WEB-DLRip от MegaPeer 1К1.46 GB ↑ 0 ↓ 1
2024-06-09 magnet Свет (2023) WEB-DL 1080p 2.38 GB ↑ 0 ↓ 2
2024-06-09 magnet Свет (2023) WEBRip 720p от ivandubskoj 1.54 GB ↑ 0 ↓ 0
2024-06-07 magnet Павел Вяч - Хирург 4, Ученье - свет, а неученье - тьма (2024) МР3 475.57 MB ↑ 0 ↓ 0
2024-05-25 magnet Свет в окне [S01] (2024) WEBRip от Generalfilm | КПК 3.11 GB ↑ 0 ↓ 0
2024-05-23 magnet Свет в окне [S01] (2024) WEBRip от Files-x 10.50 GB ↑ 0 ↓ 0

Комментарии

kap91
Очень понравился режиссёрский стиль но когда я порылся по интернету то был очень удивлён что режиссёру чуть за 30


Зарегистрируйтесь чтобы добавить комментарий
Торрент клиент
byTorrent - программа для загрузки торрент-файлов.

Скачать byTorrent.exe (1,5 МБ)

Скачать byTorrent.zip (0,6 МБ)

Поддержи torrent.by
российских рублей
(300 российских рублей это 4$)

Обратная связь rss

End game ©