↑↓torrent.by
Поиск
Логин:  Регистрация
Пароль:

Земля теней / Страна теней / Shadow Land (2024) WEB-DL 1080p от New-Team | P | TVShows

download Скачать торрент-файл   magnet Магнитная ссылка Размер: 4.64 GB Добавлен: 2024-06-10 11:00
Пиры будут получены из сети DHT
Последний сидер был замечен 2024-06-13 20:43
Земля теней / Страна теней / Shadow Land Год выпуска: 2024 Выпущено: США / Government Island, SP Media Group Жанр: триллер Режиссер: Джеймс Бэмфорд / James Bamford В ролях: Рона Митра, Джон Войт, Мартон Чокаш, Филип Уинчестер, Шон Магвайр О фильме: Преследуемый непрекращающимися кошмарами, предвещающими его безвременную кончину, бывший президент Роберт Уэйнрайт вызывает в свою резиденцию на севере штата своего прошлого психиатра, который обнаруживает, что угроза может быть более реальной, чем кажется. Продолжительность: 01:28:58 Перевод: Профессиональный (многоголосый, закадровый) | TVShows Субтитры: Английские Раздача от: Автор релиза: JNS82. Формат: MKV Качество: WEB-DL 1080p | AMZN Видео: MPEG-4 AVC, (2,40:1), 1920x800, 6447 Кбит/с, 23,976 fps Аудио #1: 48 kHz, AC3 Dolby Digital, 3/2 (L,C,R,l,r) + LFE ch, ~ 384 kbps | RUS | Аудио #2: 48 kHz, E-AC3 Dolby Digital, 3/2 (L,C,R,l,r) + LFE ch, ~ 640 kbps | ENG |
[+] MediaInfoОбщее Уникальный идентификатор : 256823109974956089631260109832733351161 (0xC13654F043A9C52F902D1022EFC45CF9) Полное имя : D:TorrentsShadow.Land.2024.1080p.AMZN_от New-Team.mkv Формат : Matroska Версия формата : Version 4 Размер файла : 4,64 Гбайт Продолжительность : 1 ч. 28 м. Общий поток : 7 473 Кбит/сек Название фильма : Shadow.Land.2024.1080p.AMZN_от New-Team Дата кодирования : UTC 2024-06-09 18:56:03 Программа кодирования : mkvmerge v79.0 ('Funeral Pyres') 64-bit Библиотека кодирования : libebml v1.4.4 + libmatroska v1.7.1 Видео Идентификатор : 1 Формат : AVC Формат/Информация : Advanced Video Codec Профиль формата : High@L4 Настройки формата : CABAC / 4 Ref Frames Параметр CABAC формата : Да Параметр RefFrames формата : 4 кадра Идентификатор кодека : V_MPEG4/ISO/AVC Продолжительность : 1 ч. 28 м. Вид битрейта : Постоянный Битрейт : 6 447 Кбит/сек Номинальный битрейт : 10 000 Кбит/сек Ширина : 1 920 пикселей Высота : 800 пикселей Соотношение сторон : 2,40:1 Режим частоты кадров : Постоянный Частота кадров : 23,976 (24000/1001) кадра/сек Цветовое пространство : YUV Субдискретизация насыщенности : 4:2:0 Битовая глубина : 8 бит Тип развёртки : Прогрессивная Бит/(Пиксели*Кадры) : 0.175 Размер потока : 4,01 Гбайт (86%) Язык : English Default : Да Forced : Нет Цветовой диапазон : Limited Основные цвета : BT.709 Характеристики трансфера : BT.709 Коэффициенты матрицы : BT.709 Аудио #1 Идентификатор : 2 Формат : AC-3 Формат/Информация : Audio Coding 3 Коммерческое название : Dolby Digital Идентификатор кодека : A_AC3 Продолжительность : 1 ч. 28 м. Вид битрейта : Постоянный Битрейт : 384 Кбит/сек Каналы : 6 каналов Channel layout : L R C LFE Ls Rs Частота : 48,0 КГц Частота кадров : 31,250 кадров/сек (1536 SPF) Метод сжатия : С потерями Размер потока : 244 Мбайт (5%) Заголовок : MVO - TVShows Язык : Russian Service kind : Complete Main Default : Да Forced : Нет Аудио #2 Идентификатор : 3 Формат : E-AC-3 Формат/Информация : Enhanced AC-3 Коммерческое название : Dolby Digital Plus Идентификатор кодека : A_EAC3 Продолжительность : 1 ч. 28 м. Вид битрейта : Постоянный Битрейт : 640 Кбит/сек Каналы : 6 каналов Channel layout : L R C LFE Ls Rs Частота : 48,0 КГц Частота кадров : 31,250 кадров/сек (1536 SPF) Метод сжатия : С потерями Размер потока : 407 Мбайт (9%) Заголовок : Original Язык : English Service kind : Complete Main Default : Нет Forced : Нет Текст #1 Идентификатор : 4 Формат : UTF-8 Идентификатор кодека : S_TEXT/UTF8 Идентификатор кодека/Информация : UTF-8 Plain Text Продолжительность : 1 ч. 20 м. Битрейт : 66 бит/сек Count of elements : 1224 Размер потока : 39,3 Кбайт (0%) Заголовок : Язык : English Default : Нет Forced : Нет Текст #2 Идентификатор : 5 Формат : UTF-8 Идентификатор кодека : S_TEXT/UTF8 Идентификатор кодека/Информация : UTF-8 Plain Text Продолжительность : 1 ч. 28 м. Битрейт : 67 бит/сек Count of elements : 1437 Размер потока : 43,8 Кбайт (0%) Заголовок : Язык : English Default : Нет Forced : Нет Меню 00:00:00.000 : en:Scene 01 01:23:02.125 : en:End Credits

Всего файлов в раздаче: 1 
Shadow.Land.2024.1080p.AMZN_от New-Team.mkv4.64 GB

Похожие раздачи по запросу - Земля
2024-06-10 magnet Земля теней / Страна теней / Shadow Land (2024) WEB-DL 720p от селезень | P | TVShows 2.13 GB ↑ 0 ↓ 0
2024-06-10 magnet Влада Ольховская - Северная корона 10. Близкая Земля (2024) МР3 255.75 MB ↑ 0 ↓ 0
2024-06-10 magnet Земля теней / Страна теней / Shadow Land (2024) WEB-DLRip-AVC | P | TVShows 1.56 GB ↑ 12 ↓ 1
2024-05-26 magnet Тейде: земля, рождённая из огня / Teide, A World Born Of Fire (2023) HDTV 1080i | P1 3.07 GB ↑ 0 ↓ 0
2024-05-13 magnet Прощай, Земля / Jongmalui babo [S01] (2024) WEB-DL 720p | TVShows 17.16 GB ↑ 0 ↓ 0
2024-05-03 magnet Земля мафии / Mob Land (2023) BDRemux 1080p | D, P2 23.53 GB ↑ 0 ↓ 0
2024-04-08 magnet BBC: Планета Земля / Planet Earth (2006) HDRip от HQ-ViDEO l Р1 1К8.01 GB ↑ 0 ↓ 0

Кто качает (только для создателя раздачи и модераторов): Локальные пиры отсутствуют

Комментарии


Зарегистрируйтесь чтобы добавить комментарий
Торрент клиент
byTorrent - программа для загрузки торрент-файлов.

Скачать byTorrent.exe (1,5 МБ)

Скачать byTorrent.zip (0,6 МБ)

Поддержи torrent.by
российских рублей
(300 российских рублей это 4$)

Обратная связь rss

End game ©