↑↓torrent.by
Поиск
Логин:  Регистрация
Пароль:

Eels - Eels Time! [24-bit Hi-Res] (2024) FLAC

download Скачать торрент-файл   magnet Магнитная ссылка Размер: 808.80 MB Добавлен: 2024-06-10 17:00
Пиры будут получены из сети DHT
Последний сидер был замечен 2024-06-21 19:30
Название: Eels Time! Исполнитель: Eels Год: 2024 Жанр: Rock, Alternative, Indie Издатель (лейбл): E Works Records Продолжительность: 00:41:14 Формат/Кодек: FLAC Тип рипа: Tracks Битрейт аудио: Lossless Разрядность: 24 Bit/96 kHz
[+] Трек-лист 01. Time (00:02:26) 02. We Won't See Her Like Again (00:03:04) 03. Goldy (00:04:09) 04. Sweet Smile (00:03:29) 05. Haunted Hero (00:02:52) 06. If I'm Gonna Go Anywhere (00:04:24) 07. And You Run (00:03:41) 08. Lay With The Lambs (00:03:32) 09. Song For You Know Who (00:02:17) 10. I Can't Believe It's True (00:03:57) 11. On The Bridge (00:03:17) 12. Let's Be Lucky (00:04:06)
[+] DRM foobar2000 1.5.5 / Замер динамического диапазона (DR) 1.1.1 ------------------------------------------------------------------------------- Анализ: Eels / Eels Time! -------------------------------------------------------------------------------- DR Пики RMS Продолжительность трека -------------------------------------------------------------------------------- DR12 -2.46 дБ -17.96 дБ 2:26 01-Time DR11 -4.05 дБ -17.28 дБ 3:04 02-We Won't See Her Like Again DR8 -0.10 дБ -10.57 дБ 4:09 03-Goldy DR7 -3.47 дБ -12.14 дБ 3:29 04-Sweet Smile DR7 -2.60 дБ -13.96 дБ 2:52 05-Haunted Hero DR6 -0.10 дБ -9.37 дБ 4:24 06-If I'm Gonna Go Anywhere DR8 -2.00 дБ -13.99 дБ 3:41 07-And You Run DR7 -2.51 дБ -11.81 дБ 3:32 08-Lay With The Lambs DR10 -2.56 дБ -15.09 дБ 2:17 09-Song For You Know Who DR9 -2.60 дБ -13.76 дБ 3:57 10-I Can't Believe It's True DR13 -4.56 дБ -18.85 дБ 3:17 11-On The Bridge DR6 -2.84 дБ -12.00 дБ 4:06 12-Let's Be Lucky -------------------------------------------------------------------------------- Количество треков: 12 Реальные значения DR: DR9 Частота: 96000 Гц Каналов: 2 Разрядность: 24 Битрейт: 2820 кбит/с Кодек: FLAC ================================================================================
Время раздачи: 24/7 (минимум до появления первых 3-5 скачавших, на раздачи не возвращаюсь) Первое правило участника файлообмена: "Скачал сам - дай скачать другому!"

Всего файлов в раздаче: 13 
01. TIME.flac48.62 MB
02. WE WON'T SEE HER LIKE AGAIN.flac59.47 MB
03. GOLDY.flac82.01 MB
04. SWEET SMILE.flac72.67 MB
05. HAUNTED HERO.flac52.99 MB
06. IF I'M GONNA GO ANYWHERE.flac89.59 MB
07. AND YOU RUN.flac71.11 MB
08. LAY WITH THE LAMBS.flac72.36 MB
09. SONG FOR YOU KNOW WHO.flac41.54 MB
10. I CAN'T BELIEVE IT'S TRUE.flac80.04 MB
Показать все файлы

Похожие раздачи по запросу - Eels
2024-06-10 magnet Eels - Eels Time! (2024) MP3 95.01 MB ↑ 0 ↓ 0

Кто качает (только для создателя раздачи и модераторов): Локальные пиры отсутствуют

Комментарии


Зарегистрируйтесь чтобы добавить комментарий
Торрент клиент
byTorrent - программа для загрузки торрент-файлов.

Скачать byTorrent.exe (1,5 МБ)

Скачать byTorrent.zip (0,6 МБ)

Поддержи torrent.by
российских рублей
(300 российских рублей это 4$)

Обратная связь rss

End game ©