↑↓torrent.by
Поиск
Логин:  Регистрация
Пароль:

VA - Bad Boys: Ride Or Die Soundtrack [24-bit Hi-Res] (2024) FLAC

download Скачать торрент-файл   magnet Магнитная ссылка Размер: 288.55 MB Добавлен: 2024-06-10 17:00
Пиры будут получены из сети DHT
Последний сидер был замечен вчера в 17:56
Название: Bad Boys: Ride Or Die Soundtrack Исполнитель: VA Год: 2024 Жанр: Pop Издатель (лейбл): Epic Продолжительность: 00:24:46 Формат/Кодек: FLAC Тип рипа: Tracks Битрейт аудио: Lossless Разрядность: 24 Bit/44,1 kHz
[+] Трек-лист 01. The Black Eyed Peas - Tonight (Bad Boys: Ride Or Die) (00:03:38) 02. Bia - Lights Out (00:03:18) 03. Scarlip - Mike T (00:02:47) 04. Bia - Oh No (00:01:37) 05. Flo Milli - Duh! (00:02:12) 06. Shenseea - Bam Bam (00:02:55) 07. 21 Lil Harold - Brand New (00:02:33) 08. Becky G - Flores Pa Ti (00:01:40) 09. Will Smith - Light Em Up (00:02:02) 10. Sean Paul - Bad Boys (00:02:04)
[+] DRM foobar2000 1.5.5 / Замер динамического диапазона (DR) 1.1.1 ------------------------------------------------------------------------------- Анализ: 21 Lil Harold / Bad Boys: Ride Or Die Soundtrack (1) Becky G / Bad Boys: Ride Or Die Soundtrack (2) Bia / Bad Boys: Ride Or Die Soundtrack (3-4) Flo Milli / Bad Boys: Ride Or Die Soundtrack (5) Scarlip / Bad Boys: Ride Or Die Soundtrack (6) Sean Paul / Bad Boys: Ride Or Die Soundtrack (7) Shenseea / Bad Boys: Ride Or Die Soundtrack (8) The Black Eyed Peas / Bad Boys: Ride Or Die Soundtrack (9) Will Smith / Bad Boys: Ride Or Die Soundtrack (10) -------------------------------------------------------------------------------- DR Пики RMS Продолжительность трека -------------------------------------------------------------------------------- DR4 -0.01 дБ -5.02 дБ 2:33 07-Brand New DR5 -0.01 дБ -7.66 дБ 1:40 08-Flores Pa Ti DR4 -0.01 дБ -4.98 дБ 3:18 02-Lights Out DR5 0.00 дБ -6.35 дБ 1:37 04-Oh No DR4 -0.10 дБ -5.32 дБ 2:12 05-Duh! DR5 -0.01 дБ -6.87 дБ 2:47 03-Mike T DR5 -0.40 дБ -6.37 дБ 2:04 10-Bad Boys DR4 -0.01 дБ -5.86 дБ 2:55 06-Bam Bam DR5 -0.10 дБ -6.78 дБ 3:38 01-Tonight (Bad Boys: Ride Or Die) DR6 -0.01 дБ -6.85 дБ 2:02 09-Light Em Up -------------------------------------------------------------------------------- Количество треков: 10 Реальные значения DR: DR5 Частота: 44100 Гц Каналов: 2 Разрядность: 24 Битрейт: 1668 кбит/с Кодек: FLAC ================================================================================
Время раздачи: 24/7 (минимум до появления первых 3-5 скачавших, на раздачи не возвращаюсь) Первое правило участника файлообмена: "Скачал сам - дай скачать другому!"

Всего файлов в раздаче: 11 
01. The Black Eyed Peas - TONIGHT (Bad Boys_ Ride Or Die).flac41.88 MB
02. Bia - LIGHTS OUT.flac39.09 MB
03. ScarLip - Mike T.flac32.29 MB
04. Bia - OH NO.flac19.23 MB
05. Flo Milli - DUH!.flac25.24 MB
06. Shenseea - Bam Bam.flac34.32 MB
07. 21 Lil Harold - Brand New.flac28.30 MB
08. Becky G - Flores Pa Ti.flac18.96 MB
09. Will Smith - LIGHT EM UP.flac24.31 MB
10. Sean Paul - Bad Boys.flac24.88 MB
Показать все файлы

Похожие раздачи по запросу - Bad
Вчера magnet Bad Nerves - Still Nervous (2024) FLAC 232.01 MB ↑ 0 ↓ 0
2024-06-11 magnet VA - Bad Boys: Ride Or Die Soundtrack (2024) MP3 57.67 MB ↑ 0 ↓ 0
2024-06-10 magnet Плохой лейтенант / Bad Lieutenant (1992) BDRip 720p от msltel | P, A 6.13 GB ↑ 0 ↓ 0
2024-06-10 magnet Плохой лейтенант / Bad Lieutenant (1992) BDRip-AVC от msltel | P, A 2.80 GB ↑ 0 ↓ 0
2024-05-31 magnet Территория зла / Land of Bad (2024) WEB-DLRip-AVC от ExKinoRay | D 1.45 GB ↑ 0 ↓ 0
2024-05-17 magnet Территория зла / Land of Bad (2024) WEB-DLRip-AVC от ExKinoRay | D 746.10 MB ↑ 0 ↓ 1
2024-05-13 magnet Звёздные войны: Бракованная партия / Star Wars: The Bad Batch [S03] (2024) WEB-DLRip 1080p | D | CFS | Локализованный видеоряд 18.95 GB ↑ 0 ↓ 0

Комментарии


Зарегистрируйтесь чтобы добавить комментарий
Торрент клиент
byTorrent - программа для загрузки торрент-файлов.

Скачать byTorrent.exe (1,5 МБ)

Скачать byTorrent.zip (0,6 МБ)

Поддержи torrent.by
российских рублей
(300 российских рублей это 4$)

Обратная связь rss

End game ©