↑↓torrent.by
Поиск
Логин:  Регистрация
Пароль:

Каскадёры / The Fall Guy (2024) UHD WEB-DL HEVC 2160p | 4K | SDR | D, P

download Скачать торрент-файл   magnet Магнитная ссылка Размер: 16.06 GB Добавлен: 2024-06-10 17:00
Пиры будут получены из сети DHT
Последний сидер был замечен 2024-06-12 22:25
Название: Каскадёры Оригинальное название: The Fall Guy Год выхода: 2024 Производство: США, Австралия, Канада / Universal Pictures, 87North Productions, Entertainment 360 Жанр: Боевик, комедия, драма Перевод: Дублированный (профессиональный), дублированный (неофициальный), профессиональный многоголосый Продолжительность: 02:06:23 Режиссёр: Дэвид Литч / David Leitch В ролях: Райан Гослинг, Эмили Блант, Аарон Тейлор-Джонсон, Ханна Веддингем, Тереза ​​Палмер, Стефани Сью, Уинстон Дьюк, Бен Найт, Матузе, Адам Данн Описание: Потрёпанный жизнью каскадёр Колт нехотя возвращается в профессию, чтобы помочь бывшей девушке Джоди снять первый фильм - блокбастер с многомиллионным бюджетом. Ситуация осложняется пропажей исполнителя главной роли. Формат: MKV Качество: WEB-DL 2160p Видео: MPEG-H HEVC / ~14,9 Mbps / 3836x1600 / 23.976 fps / 0.101 бит/(Пиксели*Кадры) Аудио 1: AC-3, 48 kHz, 6 ch, 448 kbps | Русский, DUB | Bravo Records Georgia Аудио 2: AC-3, 48 kHz, 2 ch, 256 kbps | Русский, DUB | Red Head Sound Аудио 3: E-AC-3, 48 kHz, 6 ch, 768 kbps | Русский, MVO | TVShows Аудио 4: E-AC-3, 48 kHz, 6 ch, 768 kbps | Русский, MVO | LostFilm Аудио 5: AC-3, 48 kHz, 2 ch, 192 kbps | Русский, MVO | HDRezka Аудио 6: Е-AC-3 Atmos, 48 kHz, 6 ch, 768 kbps | Original Субтитры: Русские (Forced, Full), английские (Full, SDH)
[+] MediainfoGeneral Unique ID : 136334405956070986709732877399167787892 (0x66910D2E530BF184D0E597564382E374) Complete name : E:The.Fall.Guy.2024.2160p.UHD.WEB-DL.SDR.HEVC-Нечипорук.mkv Format : Matroska Format version : Version 4 File size : 16.1 GiB Duration : 2 h 7 min Overall bit rate : 18.1 Mb/s Frame rate : 23.976 FPS Movie name : The.Fall.Guy.2024.2160p.UHD.WEB-DL.SDR.HEVC-Нечипорук Encoded date : 2024-06-09 13:19:38 UTC Writing application : mkvmerge v85.0 ('Shame For You') 64-bit Writing library : libebml v1.4.5 + libmatroska v1.7.1 Cover : Yes Attachments : cover.jpg Video ID : 1 Format : HEVC Format/Info : High Efficiency Video Coding Format profile : Main@L5@Main Codec ID : V_MPEGH/ISO/HEVC Duration : 2 h 7 min Bit rate : 14.9 Mb/s Width : 3 840 pixels Height : 1 600 pixels Display aspect ratio : 2.40:1 Frame rate mode : Constant Frame rate : 23.976 (24000/1001) FPS Color space : YUV Chroma subsampling : 4:2:0 Bit depth : 8 bits Bits/(Pixel*Frame) : 0.101 Stream size : 13.2 GiB (82%) Title : The.Fall.Guy.2024.2160p.UHD.WEB-DL.SDR.HEVC-Нечипорук Language : English Default : Yes Forced : No Color range : Limited Color primaries : BT.709 Transfer characteristics : BT.709 Matrix coefficients : BT.709 Audio #1 ID : 2 Format : AC-3 Format/Info : Audio Coding 3 Commercial name : Dolby Digital Codec ID : A_AC3 Duration : 2 h 6 min Bit rate mode : Constant Bit rate : 448 kb/s Channel(s) : 6 channels Channel layout : L R C LFE Ls Rs Sampling rate : 48.0 kHz Frame rate : 31.250 FPS (1536 SPF) Compression mode : Lossy Stream size : 405 MiB (2%) Title : Дубляж Bravo Records Georgia Language : Russian Service kind : Complete Main Default : Yes Forced : No Audio #2 ID : 3 Format : AC-3 Format/Info : Audio Coding 3 Commercial name : Dolby Digital Codec ID : A_AC3 Duration : 2 h 6 min Bit rate mode : Constant Bit rate : 256 kb/s Channel(s) : 2 channels Channel layout : L R Sampling rate : 48.0 kHz Frame rate : 31.250 FPS (1536 SPF) Compression mode : Lossy Stream size : 231 MiB (1%) Title : Дубляж Red Head Sound Language : Russian Service kind : Complete Main Default : No Forced : No Audio #3 ID : 4 Format : E-AC-3 Format/Info : Enhanced AC-3 Commercial name : Dolby Digital Plus Codec ID : A_EAC3 Duration : 2 h 6 min Bit rate mode : Constant Bit rate : 768 kb/s Channel(s) : 6 channels Channel layout : L R C LFE Ls Rs Sampling rate : 48.0 kHz Frame rate : 31.250 FPS (1536 SPF) Compression mode : Lossy Stream size : 694 MiB (4%) Title : MVO TVShows Language : Russian Service kind : Complete Main Default : No Forced : No Audio #4 ID : 5 Format : E-AC-3 Format/Info : Enhanced AC-3 Commercial name : Dolby Digital Plus Codec ID : A_EAC3 Duration : 2 h 6 min Bit rate mode : Constant Bit rate : 768 kb/s Channel(s) : 6 channels Channel layout : L R C LFE Ls Rs Sampling rate : 48.0 kHz Frame rate : 31.250 FPS (1536 SPF) Compression mode : Lossy Stream size : 694 MiB (4%) Title : MVO LostFilm Language : Russian Service kind : Complete Main Default : No Forced : No Audio #5 ID : 6 Format : AC-3 Format/Info : Audio Coding 3 Commercial name : Dolby Digital Codec ID : A_AC3 Duration : 2 h 6 min Bit rate mode : Constant Bit rate : 192 kb/s Channel(s) : 2 channels Channel layout : L R Sampling rate : 48.0 kHz Frame rate : 31.250 FPS (1536 SPF) Compression mode : Lossy Stream size : 174 MiB (1%) Title : MVO HDRezka Studio Language : Russian Service kind : Complete Main Default : No Forced : No Audio #6 ID : 7 Format : E-AC-3 JOC Format/Info : Enhanced AC-3 with Joint Object Coding Commercial name : Dolby Digital Plus with Dolby Atmos Codec ID : A_EAC3 Duration : 2 h 6 min Bit rate mode : Constant Bit rate : 768 kb/s Channel(s) : 6 channels Channel layout : L R C LFE Ls Rs Sampling rate : 48.0 kHz Frame rate : 31.250 FPS (1536 SPF) Compression mode : Lossy Stream size : 694 MiB (4%) Title : Original Language : English Service kind : Complete Main Default : No Forced : No Complexity index : 16 Number of dynamic objects : 15 Bed channel count : 1 channel Bed channel configuration : LFE Text #1 ID : 8 Format : UTF-8 Codec ID : S_TEXT/UTF8 Codec ID/Info : UTF-8 Plain Text Duration : 2 h 4 min Bit rate : 9 b/s Frame rate : 0.020 FPS Count of elements : 150 Stream size : 8.38 KiB (0%) Title : Форсированные Language : Russian Default : Yes Forced : No Text #2 ID : 9 Format : UTF-8 Codec ID : S_TEXT/UTF8 Codec ID/Info : UTF-8 Plain Text Duration : 2 h 6 min Bit rate : 120 b/s Frame rate : 0.340 FPS Count of elements : 2568 Stream size : 111 KiB (0%) Title : Полные Enigma Language : Russian Default : No Forced : No Text #3 ID : 10 Format : UTF-8 Codec ID : S_TEXT/UTF8 Codec ID/Info : UTF-8 Plain Text Duration : 2 h 6 min Bit rate : 103 b/s Frame rate : 0.389 FPS Count of elements : 2948 Stream size : 96.1 KiB (0%) Title : Full SDH Language : English Default : No Forced : No Text #4 ID : 11 Format : UTF-8 Codec ID : S_TEXT/UTF8 Codec ID/Info : UTF-8 Plain Text Duration : 2 h 6 min Bit rate : 78 b/s Frame rate : 0.277 FPS Count of elements : 2092 Stream size : 72.8 KiB (0%) Title : Completos Language : Spanish (Latin America) Default : No Forced : No Text #5 ID : 12 Format : UTF-8 Codec ID : S_TEXT/UTF8 Codec ID/Info : UTF-8 Plain Text Duration : 2 h 6 min Bit rate : 60 b/s Frame rate : 0.270 FPS Count of elements : 2043 Stream size : 56.0 KiB (0%) Title : Complets Language : French (CA) Default : No Forced : No
[+] Скриншоты

Всего файлов в раздаче: 1 
The.Fall.Guy.2024.2160p.UHD.WEB-DL.SDR.HEVC-Нечипорук.mkv16.06 GB

Похожие раздачи по запросу - Каскадёры
2024-06-10 magnet Каскадёры / The Fall Guy (2024) UHD WEB-DL HEVC 2160p | 4K | HDR | Dolby Vision Profile 8 | D, P 24.51 GB ↑ 0 ↓ 1
2024-06-10 magnet Каскадёры / The Fall Guy (2024) UHD WEB-DL HEVC 2160p | 4K | Dolby Vision TV | D, P 15.58 GB ↑ 0 ↓ 0
2024-06-08 magnet Каскадёры / The Fall Guy (2024) WEB-DLRip-AVC от ExKinoRay | D 2.19 GB ↑ 0 ↓ 0
2024-06-01 magnet Каскадёры / Каскадер / The Fall Guy (2024) WEB-DL-HEVC 2160p | 4K | SDR | D | Line | UKR 9.85 GB ↑ 0 ↓ 0
2024-05-31 magnet Каскадёры / The Fall Guy (2024) WEB-DLRip-AVC | D, P 1.09 GB ↑ 0 ↓ 0
2024-05-30 magnet Каскадёры / The Fall Guy (2024) WEB-DL 1080p | D, P 8.97 GB ↑ 0 ↓ 1
2024-05-30 magnet Каскадёры / Каскадер / The Fall Guy (2024) WEB-DL 1080p | D | Line | UKR 8.57 GB ↑ 0 ↓ 0

Кто качает (только для создателя раздачи и модераторов): Локальные пиры отсутствуют

Комментарии


Зарегистрируйтесь чтобы добавить комментарий
Торрент клиент
byTorrent - программа для загрузки торрент-файлов.

Скачать byTorrent.exe (1,5 МБ)

Скачать byTorrent.zip (0,6 МБ)

Поддержи torrent.by
российских рублей
(300 российских рублей это 4$)

Обратная связь rss

End game ©