↑↓torrent.by
Поиск
Логин:  Регистрация
Пароль:

Незнакомцы: Начало / The Strangers: Chapter 1 (2024) WEB-DL 1080p от New-Team | P | HDRezka Studio

download Скачать торрент-файл   magnet Магнитная ссылка Размер: 6.14 GB Раздают: 0 Качают: 4 Добавлен: 2024-06-10 17:00
Пиры будут получены из сети DHT
Последний сидер был замечен 2024-06-12 21:06
Незнакомцы: Начало / The Strangers: Chapter 1 Год выпуска: 2024 Выпущено: США, Испания / Fifth Element Productions, Frame Film Жанр: ужасы Режиссер: Ренни Харлин / Renny Harlin В ролях: Мэделин Петш, Фрой Гутьеррес, Гэбриел Бассо, Рэйчел Шентон, Ричард Брэйк, Бен Картрайт, Дженис Ахерн, Джордж Янг, Райан Боун, Ребекка Йонстон, Флориан Клэр, Майлз Йекинни, Рафаэлла Бискейн, Джей Ар Эспозито, Педро Леандро О фильме: Майя и Райан решили отметить пятую годовщину, не подозревая, что она может стать их последней. Путешествуя на своем пикапе через всю страну, они совершают вынужденную остановку в маленьком городе, где местные жители, даже дети, встречают их с большим интересом. Оставаться в этом странном месте пара не хочет, но вынуждена провести ночь в доме, куда вскоре нагрянут безумцы в кукольных масках. Продолжительность: 01:31:10 Перевод: Профессиональный (многоголосый, закадровый) | HDRezka Studio Субтитры: Русские (forced, full (stirlooo |18+)) английские (full, SDH) Раздача от: Автор релиза: JNS82. Формат: MKV Качество: WEB-DL 1080p | AMZN Видео: MPEG-4 AVC, (2,40:1), 1920x800, 8686 Кбит/с, 23,976 fps Аудио #1: 48 kHz, AC3 Dolby Digital, 2/0 (L,R) ch, ~ 192 kbps | RUS | Аудио #2: 48 kHz, E-AC3 JOC Dolby Digital, 3/2 (L,C,R,l,r) + LFE ch, ~ 768 kbps | ENG |
[+] MediaInfoОбщее Уникальный идентификатор : 220050446662732497291542849602798596269 (0xA58C2CA8C746695CED772EFAB491B0AD) Полное имя : D:TorrentsThe.Strangers.Chapter.1.2024.1080p.AMZN_от New-Team.mkv Формат : Matroska Версия формата : Version 4 Размер файла : 6,14 Гбайт Продолжительность : 1 ч. 31 м. Общий поток : 9 648 Кбит/сек Название фильма : The.Strangers.Chapter.1.2024.1080p.AMZN_от New-Team Дата кодирования : UTC 2024-06-10 08:55:35 Программа кодирования : mkvmerge v79.0 ('Funeral Pyres') 64-bit Библиотека кодирования : libebml v1.4.4 + libmatroska v1.7.1 Видео Идентификатор : 1 Формат : AVC Формат/Информация : Advanced Video Codec Профиль формата : High@L4 Настройки формата : CABAC / 4 Ref Frames Параметр CABAC формата : Да Параметр RefFrames формата : 4 кадра Идентификатор кодека : V_MPEG4/ISO/AVC Продолжительность : 1 ч. 31 м. Вид битрейта : Постоянный Битрейт : 8 686 Кбит/сек Номинальный битрейт : 10 000 Кбит/сек Ширина : 1 920 пикселей Высота : 800 пикселей Соотношение сторон : 2,40:1 Режим частоты кадров : Постоянный Частота кадров : 23,976 (24000/1001) кадра/сек Цветовое пространство : YUV Субдискретизация насыщенности : 4:2:0 Битовая глубина : 8 бит Тип развёртки : Прогрессивная Бит/(Пиксели*Кадры) : 0.236 Размер потока : 5,53 Гбайт (90%) Default : Да Forced : Нет Цветовой диапазон : Limited Основные цвета : BT.709 Характеристики трансфера : BT.709 Коэффициенты матрицы : BT.709 Аудио #1 Идентификатор : 2 Формат : AC-3 Формат/Информация : Audio Coding 3 Коммерческое название : Dolby Digital Идентификатор кодека : A_AC3 Продолжительность : 1 ч. 31 м. Вид битрейта : Постоянный Битрейт : 192 Кбит/сек Каналы : 2 канала Channel layout : L R Частота : 48,0 КГц Частота кадров : 31,250 кадров/сек (1536 SPF) Метод сжатия : С потерями Размер потока : 125 Мбайт (2%) Заголовок : MVO - HDRezka Studio Язык : Russian Service kind : Complete Main Default : Да Forced : Нет Аудио #2 Идентификатор : 3 Формат : E-AC-3 JOC Формат/Информация : Enhanced AC-3 with Joint Object Coding Коммерческое название : Dolby Digital Plus with Dolby Atmos Идентификатор кодека : A_EAC3 Продолжительность : 1 ч. 31 м. Вид битрейта : Постоянный Битрейт : 768 Кбит/сек Каналы : 6 каналов Channel layout : L R C LFE Ls Rs Частота : 48,0 КГц Частота кадров : 31,250 кадров/сек (1536 SPF) Метод сжатия : С потерями Задержка видео : 20 мс. Размер потока : 501 Мбайт (8%) Заголовок : Original Язык : English Service kind : Complete Main Default : Нет Forced : Нет Complexity index : 16 Number of dynamic objects : 15 Bed channel count : 1 канал Bed channel configuration : LFE Текст #1 Идентификатор : 4 Формат : UTF-8 Идентификатор кодека : S_TEXT/UTF8 Идентификатор кодека/Информация : UTF-8 Plain Text Продолжительность : 1 ч. 23 м. Битрейт : 0 бит/сек Count of elements : 8 Размер потока : 307 байт (0%) Заголовок : Язык : Russian Default : Да Forced : Нет Текст #2 Идентификатор : 5 Формат : UTF-8 Идентификатор кодека : S_TEXT/UTF8 Идентификатор кодека/Информация : UTF-8 Plain Text Продолжительность : 1 ч. 24 м. Битрейт : 38 бит/сек Count of elements : 555 Размер потока : 23,7 Кбайт (0%) Заголовок : ] Язык : Russian Default : Нет Forced : Нет Текст #3 Идентификатор : 6 Формат : UTF-8 Идентификатор кодека : S_TEXT/UTF8 Идентификатор кодека/Информация : UTF-8 Plain Text Продолжительность : 1 ч. 16 м. Битрейт : 29 бит/сек Count of elements : 636 Размер потока : 16,5 Кбайт (0%) Заголовок : Язык : English Default : Нет Forced : Нет Текст #4 Идентификатор : 7 Формат : UTF-8 Идентификатор кодека : S_TEXT/UTF8 Идентификатор кодека/Информация : UTF-8 Plain Text Продолжительность : 1 ч. 30 м. Битрейт : 33 бит/сек Count of elements : 890 Размер потока : 22,3 Кбайт (0%) Заголовок : Язык : English Default : Нет Forced : Нет Меню 00:00:00.000 : en:Chapter 01 00:01:30.090 : en:Chapter 02 00:13:55.460 : en:Chapter 03 00:27:30.025 : en:Chapter 04 00:39:32.497 : en:Chapter 05 00:51:21.206 : en:Chapter 06 01:02:46.599 : en:Chapter 07 01:13:57.645 : en:Chapter 08 01:23:18.998 : en:Chapter 09

Всего файлов в раздаче: 1 
The.Strangers.Chapter.1.2024.1080p.AMZN_от New-Team.mkv6.14 GB

Похожие раздачи по запросу - Незнакомцы
2024-06-11 magnet Незнакомцы: Начало / The Strangers: Chapter 1 (2024) WEB-DL 720p от селезень | P | HDRezka Studio 2.46 GB ↑ 0 ↓ 2
2024-06-11 magnet Незнакомцы: Начало / The Strangers: Chapter 1 (2024) WEBRip 1080p | ViruseProject 7.16 GB ↑ 0 ↓ 3
2024-06-10 magnet Незнакомцы: Начало / The Strangers: Chapter 1 (2024) WEB-DLRip от New-Team | P | HDRezka Studio 1.46 GB ↑ 0 ↓ 0
2024-05-30 magnet Идеальные незнакомцы / Perfetti sconosciuti (2016) BDRip-AVC | iTunes 2.10 GB ↑ 0 ↓ 0
2023-09-02 magnet О чем говорят незнакомцы / Bajo terapia / Under Therapy (2023) WEB-DL 1080p от селезень | D 2.95 GB ↑ 0 ↓ 0

Комментарии


Зарегистрируйтесь чтобы добавить комментарий
Торрент клиент
byTorrent - программа для загрузки торрент-файлов.

Скачать byTorrent.exe (1,5 МБ)

Скачать byTorrent.zip (0,6 МБ)

Поддержи torrent.by
российских рублей
(300 российских рублей это 4$)

Обратная связь rss

End game ©