↑↓torrent.by
Поиск
Логин:  Регистрация
Пароль:

Джинна / Jinnah (1998) BDRip-AVC | L1

download Скачать торрент-файл   magnet Магнитная ссылка Размер: 2.18 GB Раздают: 0 Качают: 1 Добавлен: il68k 2024-06-11 09:03
Пиры будут получены из сети DHT
Последний сидер был замечен сегодня в 20:13
Информация о фильме Название: Джинна Оригинальное название: Jinnah Год выхода: 1998 Жанр: драма, военный, биография Режиссер: Джамиль Дехлави В ролях: Кристофер Ли, Джеймс Фокс, Мария Аиткен, Шаши Капур, Ричард Линтерн, Ширин Шах, Роберт Эшби, Индира Варма, Сэм Дастор, Юсуф Камал О фильме: Фильм повествует о жизни основателя Пакистана Мухаммада Али Джинны в различные периоды - о том, как он решил разделить одну страну на две части, дабы мусульмане и индуисты могли жить раздельно, а также избавиться от правления Британской империи и сделать Пакистан полностью независимым государством. Фильм начинается словами известного американского историка, профессора Калифорнийского университета Стэнли Уолперта: «Несколько человек могут существенно изменить ход истории. Еще меньше людей способны изменить карту мира. Но вряд ли кто-то сможет приписать себе создание национального государства. Мухаммад Али Джинна сделал всё это». Страна: Великобритания, Пакистан Студия: Dehlavi Films, Petra Film, The Quaid Project Продолжительность: 01:49:48 Перевод: Любительский (одноголосый закадровый) | Олег Воротилин Файл Кодек: H.264 Качество: BDRip-AVC Видео: MPEG-4 AVC, 2454 kbps, 1024x554 (1.85:1), 24.000 fps, 0.180 bit/pixel, High@L4.1 Звук 1: 48 kHz, АС3 Dolby Digital, 2 (L, R) ch, 192 kbps | Олег Воротилин Звук 2: 48 kHz, АС3 Dolby Digital, 2 (L, R) ch, 192 kbps | Английский Субтитры: английские (full, SDH), русские Семпл
[+] Скриншоты
[+] MediaInfo avs : 1024x554p 1:1 @ 24/1 fps (cfr) x264 : using SAR=1/1 x264 : using cpu capabilities: MMX2 SSE2Fast SSSE3 SSE4.2 AVX FMA3 BMI2 AVX2 x264 : profile High, level 4.1, 4:2:0, 8-bit x264 : frame I:944 Avg QP:17.78 size: 75278 x264 : frame P:26218 Avg QP:21.02 size: 29207 x264 : frame B:130949 Avg QP:22.74 size: 8883 x264 : consecutive B-frames: 1.0% 1.3% 3.8% 9.1% 7.3% 40.1% 5.6% 1.9% 8.5% 2.1% 6.7% 8.0% 4.6% x264 : mb I I16..4: 3.2% 88.2% 8.6% x264 : mb P I16..4: 0.6% 6.8% 0.7% P16..4: 42.2% 28.7% 16.7% 0.0% 0.0% skip: 4.2% x264 : mb B I16..4: 0.0% 0.4% 0.0% B16..8: 47.8% 12.3% 3.3% direct: 5.6% skip:30.6% L0:46.9% L1:48.0% BI: 5.2% x264 : 8x8 transform intra:85.8% inter:64.1% x264 : direct mvs spatial:98.8% temporal:1.2% x264 : coded y, uvDC, uvAC intra: 93.3% 72.5% 35.0% inter: 31.6% 17.3% 2.7% x264 : i16 v, h, dc, p: 34% 14% 9% 44% x264 : i8 v, h, dc, ddl, ddr, vr, hd, vl, hu: 9% 6% 5% 11% 16% 15% 14% 12% 11% x264 : i4 v, h, dc, ddl, ddr, vr, hd, vl, hu: 10% 5% 2% 10% 16% 18% 14% 13% 11% x264 : i8c dc, h, v, p: 40% 23% 21% 16% x264 : Weighted P-Frames: Y:5.8% UV:1.2% x264 : ref P L0: 38.7% 11.9% 18.1% 7.0% 6.2% 4.3% 4.1% 2.1% 2.0% 1.5% 1.5% 1.2% 1.3% 0.1% 0.0% x264 : ref B L0: 61.9% 13.7% 8.1% 4.2% 3.2% 2.7% 2.2% 1.3% 1.1% 1.0% 0.6% 0.2% x264 : ref B L1: 91.2% 8.8% x264 : kb/s:2452.44 encoded 158111 frames, 22.04 fps, 2452.44 kb/s Final statistics =========================================================== General Unique ID: 314281167315003190304828522067944055286 (0xEC7059E245C0EB409846DBC478E0A1F6) Complete name: C:\Jinnah.1998.EurekaEntertainment.BDRip.AVC.mkv Format: Matroska Format version: Version 4 File size: 2.18 GiB Duration: 1 h 49 min Overall bit rate: 2 839 kb/s Frame rate: 24.000 FPS Movie name: Jinnah (1998) BDRip-AVC _ vitolinform Encoded date: 2024-06-11 01:33:07 UTC Writing application: mkvmerge v85.0 ('Shame For You') 64-bit Writing library: libebml v1.4.5 + libmatroska v1.7.1 Attachments: poster.jpg / log.log Video ID: 1 Format: AVC Format/Info: Advanced Video Codec Format profile: High@L4.1 Format settings: CABAC / 13 Ref Frames Format settings, CABAC: Yes Format settings, Reference frames: 13 frames Codec ID: V_MPEG4/ISO/AVC Duration: 1 h 49 min Bit rate: 2 454 kb/s Width: 1 024 pixels Height: 554 pixels Display aspect ratio: 1.85:1 Frame rate mode: Constant Frame rate: 24.000 FPS Color space: YUV Chroma subsampling: 4:2:0 Bit depth: 8 bits Scan type: Progressive Bits/(Pixel*Frame): 0.180 Stream size: 1.88 GiB (86%) Title: Джинна / Jinnah (1998) Writing library: x264 core 164 r3107 a8b68eb Encoding settings: cabac=1 / ref=13 / deblock=1:-3:-3 / analyse=0x3:0x113 / me=umh / subme=10 / psy=1 / psy_rd=1.00:0.05 / mixed_ref=1 / me_range=32 / chroma_me=1 / trellis=2 / 8x8dct=1 / cqm=0 / deadzone=21, 11 / fast_pskip=0 / chroma_qp_offset=-3 / threads=17 / lookahead_threads=4 / sliced_threads=0 / nr=0 / decimate=0 / interlaced=0 / bluray_compat=0 / constrained_intra=0 / bframes=12 / b_pyramid=2 / b_adapt=2 / b_bias=0 / direct=3 / weightb=1 / open_gop=0 / weightp=2 / keyint=240 / keyint_min=23 / scenecut=40 / intra_refresh=0 / rc_lookahead=60 / rc=2pass / mbtree=1 / bitrate=2454 / ratetol=1.0 / qcomp=0.60 / qpmin=0 / qpmax=69 / qpstep=4 / cplxblur=20.0 / qblur=0.5 / vbv_maxrate=50000 / vbv_bufsize=62500 / nal_hrd=none / filler=0 / ip_ratio=1.40 / aq=1:1.00 Language: English Default: Yes Forced: No Color range: Limited Color primaries: BT.709 Transfer characteristics: BT.709 Matrix coefficients: BT.709 Audio #1 ID: 2 Format: AC-3 Format/Info: Audio Coding 3 Commercial name: Dolby Digital Codec ID: A_AC3 Duration: 1 h 49 min Bit rate mode: Constant Bit rate: 192 kb/s Channel(s): 2 channels Channel layout: L R Sampling rate: 48.0 kHz Frame rate: 31.250 FPS (1536 SPF) Compression mode: Lossy Stream size: 151 MiB (7%) Title: VO | Олег Воротилин Language: Russian Service kind: Complete Main Default: Yes Forced: No Audio #2 ID: 3 Format: AC-3 Format/Info: Audio Coding 3 Commercial name: Dolby Digital Codec ID: A_AC3 Duration: 1 h 49 min Bit rate mode: Constant Bit rate: 192 kb/s Channel(s): 2 channels Channel layout: L R Sampling rate: 48.0 kHz Frame rate: 31.250 FPS (1536 SPF) Compression mode: Lossy Stream size: 151 MiB (7%) Title: English Language: English Service kind: Complete Main Default: No Forced: No Text #1 ID: 4 Format: UTF-8 Codec ID: S_TEXT/UTF8 Codec ID/Info: UTF-8 Plain Text Duration: 1 h 46 min Bit rate: 110 b/s Frame rate: 0.211 FPS Count of elements: 1357 Stream size: 86.2 KiB (0%) Title: Full | Иван Старостенко Language: Russian Default: No Forced: No Text #2 ID: 5 Format: UTF-8 Codec ID: S_TEXT/UTF8 Codec ID/Info: UTF-8 Plain Text Duration: 1 h 45 min Bit rate: 60 b/s Frame rate: 0.214 FPS Count of elements: 1354 Stream size: 47.1 KiB (0%) Title: Full Language: English Default: No Forced: No Text #3 ID: 6 Format: UTF-8 Codec ID: S_TEXT/UTF8 Codec ID/Info: UTF-8 Plain Text Duration: 1 h 45 min Bit rate: 63 b/s Frame rate: 0.222 FPS Count of elements: 1407 Stream size: 49.2 KiB (0%) Title: SDH Language: English Default: No Forced: No Menu 00:00:00.000: 00:00:00.000 00:10:30.750: 00:10:30.750 00:20:01.792: 00:20:01.792 00:31:04.417: 00:31:04.417 00:39:25.917: 00:39:25.917 00:50:05.667: 00:50:05.667 01:00:03.583: 01:00:03.583 01:10:35.083: 01:10:35.083 01:20:11.417: 01:20:11.417 01:30:57.250: 01:30:57.250 01:38:40.167: 01:38:40.167
Rip by vitolinform Перевод и русские субтитры Иван Старостенко Озвучка: Олег Воротилин Спонсоры озвучки vitolinform, porvaliparus

Всего файлов в раздаче: 1 
Jinnah.1998.EurekaEntertainment.BDRip.AVC.mkv2.18 GB

Похожие раздачи по запросу - Джинна
2024-06-11 magnet Джинна / Jinnah (1998) BDRip от AR-Team | L1 1.44 GB ↑ 0 ↓ 0
2024-06-10 magnet Джинна / Jinnah (1998) BDRip 720p | L1 11.92 GB ↑ 0 ↓ 0
2024-06-10 magnet Джинна / Jinnah (1998) BDRemux 1080p | L1 22.91 GB ↑ 0 ↓ 0

Кто качает (только для создателя раздачи и модераторов):
ПользовательIP:портОтдалПринялОстатокСидируетТоррент клиентОбновился
1 Аноним 179.61.240.33:37998 0.00 B 0.00 B 1.95 GB нет -Lr3500- 23:08 2024-06-24

Комментарии


Зарегистрируйтесь чтобы добавить комментарий
Торрент клиент
byTorrent - программа для загрузки торрент-файлов.

Скачать byTorrent.exe (1,5 МБ)

Скачать byTorrent.zip (0,6 МБ)

Поддержи torrent.by
российских рублей
(300 российских рублей это 4$)

Обратная связь rss

End game ©