↑↓torrent.by
Поиск
Логин:  Регистрация
Пароль:

Последние люди / Les derniers hommes / The Last Men (2023) WEB-DLRip-AVC | L

download Скачать торрент-файл   magnet Магнитная ссылка Размер: 2.70 GB Раздают: 55 Качают: 0 Добавлен: il68k 2024-06-11 09:53
Пиры будут получены из сети DHT
Последний сидер был замечен сегодня в 01:59
Информация о фильме Название: Последние люди Оригинальное название: Les derniers hommes / The Last Men Год выхода: 2023 Жанр: драма, военный, история Режиссер: Давид Эльхоффен В ролях: Гуидо Каприно, Анджей Хыра, Нуну Лопеш, Аксель Гранбергер, Ян Говен, Феликс Мейер, Тенг Ва, Арно Шурен, Антонио Лопез Гарсия, Вим Вилларт О фильме: Март 1945 года. Японская армия начинает внезапное и чрезвычайно жестокое наступление на французские гарнизоны на Дальнем Востоке. Тысячи мирных жителей и солдат были казнены. Преследуемая японским врагом, колонна легионеров, уже ослабленных алкоголем и болезнями, решает углубиться в джунгли, чтобы попытаться добраться до Китая и баз союзников. Страна: Франция, Бельгия Студия: Galatee Films, La Fondation Bettencourt Schueller, Allons Voir Продолжительность: 02:00:28 Перевод: Любительский (многоголосый закадровый) | Синема УС Файл Кодек: H.264 Качество: WEB-DLRip-AVC Видео: MPEG-4 AVC, 2571 kbps, 1024x426 (2.40:1), 24.000 fps, 0.246 bit/pixel, High@L4.1 Звук 1: 48 kHz, АС3 Dolby Digital, 2 (L, R) ch, 192 kbps | Синема УС Звук 2: 48 kHz, AC3 Dolby Digital, 3/2 (L, C, R, l, r) + LFE ch, ~448 kbps | Французский Субтитры: французские (forced, SDH) Семпл
[+] Скриншоты
[+] MediaInfo raw : 1024x426p 1:1 @ 10000000/416667 fps (cfr) x264 : using SAR=1/1 x264 : using cpu capabilities: MMX2 SSE2Fast SSSE3 SSE4.2 AVX FMA3 BMI2 AVX2 x264 : profile High, level 4.1, 4:2:0, 8-bit x264 : frame I:944 Avg QP:17.49 size: 72147 x264 : frame P:41412 Avg QP:19.74 size: 27099 x264 : frame B:131136 Avg QP:20.99 size: 8639 x264 : consecutive B-frames: 3.0% 3.9% 8.8% 31.7% 14.3% 24.5% 4.9% 3.6% 1.2% 0.7% 0.7% 0.8% 1.8% x264 : mb I I16..4: 11.7% 64.9% 23.5% x264 : mb P I16..4: 0.6% 11.3% 1.9% P16..4: 33.9% 29.4% 17.9% 0.0% 0.0% skip: 5.0% x264 : mb B I16..4: 0.0% 0.9% 0.3% B16..8: 38.9% 14.5% 4.8% direct: 7.1% skip:33.5% L0:40.8% L1:42.1% BI:17.0% x264 : 8x8 transform intra:78.9% inter:55.1% x264 : direct mvs spatial:100.0% temporal:0.0% x264 : coded y, uvDC, uvAC intra: 96.3% 82.9% 55.9% inter: 34.4% 19.1% 7.5% x264 : i16 v, h, dc, p: 22% 8% 26% 45% x264 : i8 v, h, dc, ddl, ddr, vr, hd, vl, hu: 10% 10% 9% 8% 12% 12% 13% 11% 13% x264 : i4 v, h, dc, ddl, ddr, vr, hd, vl, hu: 10% 8% 4% 8% 15% 14% 15% 11% 14% x264 : i8c dc, h, v, p: 44% 24% 17% 15% x264 : Weighted P-Frames: Y:5.4% UV:1.9% x264 : ref P L0: 50.4% 16.5% 12.6% 4.3% 3.7% 2.4% 2.4% 1.3% 1.3% 1.0% 1.0% 0.8% 0.8% 0.7% 0.8% 0.0% x264 : ref B L0: 76.9% 9.2% 4.3% 2.4% 1.6% 1.3% 1.1% 0.7% 0.6% 0.5% 0.5% 0.4% 0.3% 0.2% x264 : ref B L1: 95.4% 4.6% x264 : kb/s:2571.09 x264 : encoded 173492 frames, 22.82 fps, 2571.09 kb/s ================================================================== General Unique ID: 147471856258058899102473449281164239060 (0x6EF20BE05B913536C57A1922A6AD60D4) Complete name: C:\Poslednie.lyudi.2023.WEB-DLRip.AVC.mkv Format: Matroska Format version: Version 4 File size: 2.70 GiB Duration: 2 h 0 min Overall bit rate: 3 213 kb/s Frame rate: 24.000 FPS Movie name: The Last Men (2023) WEB-DLRip-AVC _ vitolinform Encoded date: 2024-06-11 04:25:55 UTC Writing application: mkvmerge v85.0 ('Shame For You') 64-bit Writing library: libebml v1.4.5 + libmatroska v1.7.1 Attachments: poster.jpg / log.log Video ID: 1 Format: AVC Format/Info: Advanced Video Codec Format profile: High@L4.1 Format settings: CABAC / 15 Ref Frames Format settings, CABAC: Yes Format settings, Reference frames: 15 frames Codec ID: V_MPEG4/ISO/AVC Duration: 2 h 0 min Bit rate: 2 571 kb/s Width: 1 024 pixels Height: 426 pixels Display aspect ratio: 2.40:1 Frame rate mode: Constant Frame rate: 24.000 FPS Color space: YUV Chroma subsampling: 4:2:0 Bit depth: 8 bits Scan type: Progressive Bits/(Pixel*Frame): 0.246 Stream size: 2.16 GiB (80%) Title: Последний человек / Последние люди / Les derniers hommes (2023) Writing library: x264 core 164 r3172 c1c9931 Encoding settings: cabac=1 / ref=15 / deblock=1:-3:-3 / analyse=0x3:0x113 / me=umh / subme=10 / psy=1 / psy_rd=1.00:0.15 / mixed_ref=1 / me_range=32 / chroma_me=1 / trellis=2 / 8x8dct=1 / cqm=0 / deadzone=21, 11 / fast_pskip=0 / chroma_qp_offset=-3 / threads=13 / lookahead_threads=3 / sliced_threads=0 / nr=0 / decimate=0 / interlaced=0 / bluray_compat=0 / constrained_intra=0 / bframes=12 / b_pyramid=2 / b_adapt=2 / b_bias=0 / direct=3 / weightb=1 / open_gop=0 / weightp=2 / keyint=250 / keyint_min=24 / scenecut=40 / intra_refresh=0 / rc_lookahead=60 / rc=crf / mbtree=0 / crf=18.0 / qcomp=0.60 / qpmin=0 / qpmax=69 / qpstep=4 / vbv_maxrate=50000 / vbv_bufsize=62500 / crf_max=0.0 / nal_hrd=none / filler=0 / ip_ratio=1.40 / pb_ratio=1.30 / aq=1:1.00 Language: French Default: Yes Forced: No Color range: Limited Color primaries: BT.709 Transfer characteristics: BT.709 Matrix coefficients: BT.709 Audio #1 ID: 2 Format: AC-3 Format/Info: Audio Coding 3 Commercial name: Dolby Digital Codec ID: A_AC3 Duration: 2 h 0 min Bit rate mode: Constant Bit rate: 192 kb/s Channel(s): 2 channels Channel layout: L R Sampling rate: 48.0 kHz Frame rate: 31.250 FPS (1536 SPF) Compression mode: Lossy Stream size: 165 MiB (6%) Title: MVO | Синема УС Language: Russian Service kind: Complete Main Default: Yes Forced: No Audio #2 ID: 3 Format: AC-3 Format/Info: Audio Coding 3 Commercial name: Dolby Digital Codec ID: A_AC3 Duration: 2 h 0 min Bit rate mode: Constant Bit rate: 448 kb/s Channel(s): 6 channels Channel layout: L R C LFE Ls Rs Sampling rate: 48.0 kHz Frame rate: 31.250 FPS (1536 SPF) Compression mode: Lossy Stream size: 386 MiB (14%) Title: French Language: French Service kind: Complete Main Default: No Forced: No AC3_metadata cmixlev: -3.0 dB surmixlev: -3 dB Text #1 ID: 4 Format: UTF-8 Codec ID: S_TEXT/UTF8 Codec ID/Info: UTF-8 Plain Text Duration: 1 h 46 min Bit rate: 1 b/s Frame rate: 0.006 FPS Count of elements: 38 Stream size: 1.16 KiB (0%) Title: Forced Language: French Default: No Forced: No Text #2 ID: 5 Format: UTF-8 Codec ID: S_TEXT/UTF8 Codec ID/Info: UTF-8 Plain Text Duration: 1 h 59 min Bit rate: 29 b/s Frame rate: 0.139 FPS Count of elements: 995 Stream size: 25.6 KiB (0%) Title: SDH Language: French Default: No Forced: No
Rip by vitolinform

Всего файлов в раздаче: 1 
Poslednie.lyudi.2023.WEB-DLRip.AVC.mkv2.70 GB

Кто качает (только для создателя раздачи и модераторов):
ПользовательIP:портОтдалПринялОстатокСидируетТоррент клиентОбновился
1 Аноним 193.35.32.19:41160 2.28 MB 0.00 B 0.00 B да -UT360W- 01:59 2024-06-15
2 Аноним 31.134.189.178:31003 1.10 GB 0.00 B 0.00 B да -qB4640- 01:50 2024-06-15
3 Аноним 86.38.72.196:51167 0.00 B 0.00 B 0.00 B да -UT360W- 01:47 2024-06-15
4 Аноним 185.166.220.199:40987 0.00 B 0.00 B 0.00 B да -UT2040- 01:39 2024-06-15
5 Аноним 85.173.133.236:57936 173.60 MB 0.00 B 0.00 B да -qB4650- 01:34 2024-06-15
6 Аноним 93.170.65.175:41963 0.00 B 0.00 B 0.00 B да -UT360W- 01:47 2024-06-15
7 Аноним 95.26.143.177:57212 806.61 MB 0.00 B 0.00 B да -UT355W- 01:32 2024-06-15
8 Аноним 185.241.165.4:31865 6.20 GB 0.00 B 0.00 B да -UT3130- 01:35 2024-06-15
9 Аноним 46.63.196.195:56899 436.61 MB 0.00 B 0.00 B да -UT360W- 01:41 2024-06-15
10 Аноним 178.17.183.52:31858 0.00 B 0.00 B 0.00 B да -UT360W- 01:42 2024-06-15
11 Аноним 95.46.140.115:19473 0.00 B 0.00 B 0.00 B да -UT355S- 01:58 2024-06-15
12 Аноним 178.45.8.45:57473 455.84 MB 0.00 B 0.00 B да -qB4630- 01:52 2024-06-15
13 Аноним 185.181.167.24:25720 0.00 B 0.00 B 0.00 B да -UT360W- 01:32 2024-06-15
14 Аноним 176.57.77.98:50971 1.33 GB 0.00 B 0.00 B да -qB4650- 01:45 2024-06-15
15 Аноним 95.25.196.145:14503 672.00 kB 0.00 B 0.00 B да -UT360W- 01:52 2024-06-15
16 Аноним 5.35.50.40:28828 0.00 B 0.00 B 0.00 B да -UT2210- 01:59 2024-06-15
17 Аноним 178.66.159.64:38977 0.00 B 0.00 B 0.00 B да -BT7b0W- 01:53 2024-06-15
18 Аноним 147.235.197.143:15495 0.00 B 0.00 B 0.00 B да TIX0319- 01:53 2024-06-15
19 Аноним 178.46.107.4:52392 0.00 B 0.00 B 0.00 B да -UT360W- 01:39 2024-06-15
20 Аноним 83.234.163.39:54473 17.43 GB 2.70 GB 0.00 B да -qB4550- 01:37 2024-06-15
21 Аноним 84.43.171.155:34807 8.89 MB 0.00 B 0.00 B да -UT360W- 01:59 2024-06-15
22 Аноним 146.70.95.74:63198 0.00 B 0.00 B 0.00 B да -UT360W- 01:56 2024-06-15
23 Аноним 46.211.232.173:11339 348.39 MB 0.00 B 0.00 B да -UT360W- 01:54 2024-06-15
24 Аноним 217.107.126.151:53248 4.84 MB 0.00 B 0.00 B да -UT360W- 01:52 2024-06-15
25 Аноним 178.49.12.170:12761 80.00 kB 0.00 B 0.00 B да -UT360W- 01:48 2024-06-15
26 Аноним 79.108.237.32:37985 42.83 MB 0.00 B 0.00 B да -UT360W- 01:38 2024-06-15
27 Аноним 93.124.116.85:33732 14.84 MB 0.00 B 0.00 B да -UT355W- 01:30 2024-06-15
28 Аноним 109.194.141.80:19031 5.94 GB 0.00 B 0.00 B да -UT3120- 01:42 2024-06-15
29 Аноним 37.214.83.125:48552 513.89 MB 0.00 B 0.00 B да -UT360W- 01:48 2024-06-15
30 Аноним 87.229.147.28:23710 276.31 MB 2.70 GB 0.00 B да -UT2210- 01:42 2024-06-15
31 Аноним 185.143.147.195:6881 1.27 GB 2.70 GB 0.00 B да -qB4640- 01:45 2024-06-15
32 Аноним 37.188.45.228:25057 3.36 GB 0.00 B 0.00 B да -UT360W- 01:57 2024-06-15
33 Аноним 181.214.94.175:29333 827.34 MB 0.00 B 0.00 B да -UT360W- 01:55 2024-06-15
34 Аноним 92.124.23.197:36311 17.43 GB 2.70 GB 0.00 B да -qB4650- 01:56 2024-06-15
35 Аноним 78.109.36.254:10088 8.47 GB 2.70 GB 0.00 B да -BT7b0W- 01:33 2024-06-15
36 Аноним 109.168.231.244:45798 8.88 GB 0.00 B 0.00 B да -UT360W- 01:30 2024-06-15
37 Аноним 85.26.241.128:48642 19.23 MB 0.00 B 0.00 B да -UT360S- 01:59 2024-06-15
38 Аноним 147.235.214.20:13809 5.24 GB 0.00 B 0.00 B да -UT360W- 01:45 2024-06-15
39 Аноним 193.194.127.228:51413 1.28 GB 2.70 GB 0.00 B да -TR3000- 01:34 2024-06-15
40 Аноним 178.70.130.249:56948 32.01 GB 2.70 GB 0.00 B да -UT355S- 01:44 2024-06-15
41 Аноним 46.117.21.10:47904 35.75 MB 0.00 B 0.00 B да -UT360W- 01:51 2024-06-15
42 Аноним 109.252.120.120:14112 1.30 GB 0.00 B 0.00 B да -UT360W- 01:40 2024-06-15
43 Аноним 192.166.101.75:59163 679.38 MB 0.00 B 0.00 B да -UT360W- 01:46 2024-06-15
44 Аноним 37.212.200.55:13012 101.14 MB 0.00 B 0.00 B да -UT3120- 01:58 2024-06-15
45 Аноним 85.26.232.85:51413 0.00 B 0.00 B 0.00 B да -TR3000- 01:58 2024-06-15
46 Аноним 37.78.25.21:37076 279.88 MB 0.00 B 0.00 B да -UT355S- 01:58 2024-06-15
47 Аноним 176.117.198.234:27156 1.27 GB 0.00 B 0.00 B да -UT3210- 01:44 2024-06-15
48 Аноним 185.3.181.239:15422 2.04 GB 0.00 B 0.00 B да -UT360W- 01:35 2024-06-15
49 Аноним 91.232.110.82:43788 2.93 GB 2.70 GB 0.00 B да -UT2210- 01:52 2024-06-15
50 Аноним 77.125.171.88:65290 2.50 GB 0.00 B 0.00 B да -qB4650- 01:48 2024-06-15
51 Аноним 109.198.106.2:40852 1.83 GB 0.00 B 0.00 B да -UT360W- 01:51 2024-06-15
52 Аноним 91.235.225.47:9100 1.71 GB 0.00 B 0.00 B да -BC0207- 01:54 2024-06-15
53 Аноним 31.135.41.174:62270 1.69 GB 0.00 B 0.00 B да -UT360W- 01:41 2024-06-15
54 Аноним 91.149.160.64:49377 11.81 GB 0.00 B 0.00 B да -UT353S- 01:35 2024-06-15
55 Аноним 37.72.71.230:64015 46.39 GB 2.70 GB 0.00 B да -TR3000- 01:46 2024-06-15

Комментарии

faza20
ослабленных алкоголем...........крутой сюжет для военного фильма


Зарегистрируйтесь чтобы добавить комментарий
Торрент клиент
byTorrent - программа для загрузки торрент-файлов.

Скачать byTorrent.exe (1,5 МБ)

Скачать byTorrent.zip (0,6 МБ)

Поддержи torrent.by
российских рублей
(300 российских рублей это 4$)

Обратная связь rss

End game ©