↑↓torrent.by
Поиск
Логин:  Регистрация
Пароль:

Миниатюрные хищники / Micro Killers (2019) HDTV 1080i | P1

download Скачать торрент-файл   magnet Магнитная ссылка Размер: 2.52 GB Добавлен: 2024-06-11 11:00
Пиры будут получены из сети DHT
Последний сидер был замечен 2024-06-12 19:29
Информация о фильме Название: Миниатюрные хищники Оригинальное название: Micro Killers Год выхода: 2019 Жанр: Документальный, природа, флора, фауна Режиссер: Хуан Антонио Родригес Льяно О фильме: Кто бы мог подумать, что самые крошечные существа могут быть одновременно и самыми изощренными убийцами в дикой природе? Мир насекомых гораздо сложнее, чем кажется на первый взгляд. Страна: Испания Студия: Terra Incognita Продолжительность: 00:49:29 Перевод: Профессиональный (одноголосый закадровый) Файл Кодек: AVC/H.264 Качество: HDTV 1080i Видео: 1920x1080 (16:9), 25 fps, AVC (H.264), High@L4, 6733 kbps, 0.130 bit/pixel Звук: Русский 48 kHz, MPEG Layer 2, 2 ch, 192 kbps Семпл
[+] MediaInfoComplete name : F:НаладкиMicro Killers.ts Format : MPEG-TS File size : 2.52 GiB Duration : 49 min 29 s Overall bit rate mode : Variable Overall bit rate : 7 287 kb/s Frame rate : 25.000 FPS Video ID : 2682 (0xA7A) Menu ID : 326 (0x146) Format : AVC Format/Info : Advanced Video Codec Format profile : High@L4 Format settings : CABAC / 4 Ref Frames Format settings, CABAC : Yes Format settings, Reference : 4 frames Codec ID : 27 Duration : 49 min 29 s Bit rate : 6 733 kb/s Width : 1 920 pixels Height : 1 080 pixels Display aspect ratio : 16:9 Frame rate : 25.000 FPS Standard : Component Color space : YUV Chroma subsampling : 4:2:0 Bit depth : 8 bits Scan type : Interlaced Scan type, store method : Separated fields Scan order : Top Field First Bits/(Pixel*Frame) : 0.130 Stream size : 2.33 GiB (92%) Color range : Limited Color primaries : BT.709 Transfer characteristics : BT.709 Matrix coefficients : BT.709 Audio ID : 2683 (0xA7B) Menu ID : 326 (0x146) Format : MPEG Audio Format version : Version 1 Format profile : Layer 2 Codec ID : 3 Duration : 49 min 29 s Bit rate mode : Constant Bit rate : 192 kb/s Channel(s) : 2 channels Sampling rate : 48.0 kHz Frame rate : 41.667 FPS (1152 SPF) Compression mode : Lossy Stream size : 68.0 MiB (3%) Language : Russian Text ID : 2687 (0xA7F)-888 Menu ID : 326 (0x146) Format : Teletext Subtitle Language : Russian Language, more info : For hearing impaired people
[+] Скриншоты
Релиз от: kyba

Всего файлов в раздаче: 1 
Micro Killers.ts2.52 GB

Кто качает (только для создателя раздачи и модераторов): Локальные пиры отсутствуют

Комментарии


Зарегистрируйтесь чтобы добавить комментарий
Торрент клиент
byTorrent - программа для загрузки торрент-файлов.

Скачать byTorrent.exe (1,5 МБ)

Скачать byTorrent.zip (0,6 МБ)

Поддержи torrent.by
российских рублей
(300 российских рублей это 4$)

Обратная связь rss

End game ©