↑↓torrent.by
Поиск
Логин:  Регистрация
Пароль:

Ангар 18 / Hangar 18 (1980) BDRip 1080p от New-Team | D, P2, A

download Скачать торрент-файл   magnet Магнитная ссылка Размер: 8.25 GB Раздают: 1 Качают: 0 Добавлен: 2024-06-11 11:00
Пиры будут получены из сети DHT
Последний сидер был замечен сегодня в 10:57
«It started with an accident in space . . . and led to the terrifying secret in . . . HANGAR 18» Страна: США / Sunn Classic Pictures Inc. Жанр: фантастика, боевик, триллер, биография Год выпуска: 1980 Продолжительность: 01:37:30 Перевод: Профессиональный (дублированный) - Советский дубляж (со вставками двухголосого закадрового) Профессиональный (двухгоголосый, закадровый): НТВ+ Авторский (одноголосый): Юрий Сербин Cубтитры: нет Оригинальная аудиодорожка: английский Режиссер: Джеймс Л. Конуэй / James L. Conway В ролях: Гари Коллинз, Роберт Вон, Джеймс Хэмптон, Филип Эбботт, Джозеф Кампанелла, Памела Беллвуд, Том Хэллик, Стивен Китс, Уильям Шэллерт, Дэррен МакГэвин... Роли дублировали: Игорь Окрепилов, Александр Демьяненко, Вячеслав Захаров, Юрий Дедович, Владимир Татосов... Описание: Во время запуска спутника с космического челнока NASA происходит катастрофа, в результате которой погибает один из астронавтов. Как потом выясняется, причиной взрыва становится столкновение спутника с НЛО. Неопознанный объект совершает аварийную посадку на Земле и попадает в руки спецслужб правительства. Небольшая группа военных и политиков, опасающихся ненужной и рискованной шумихи вокруг этого ЧП накануне президентских выборов, делают все, чтобы сохранить происшествие в тайне. Вернувшихся на землю астронавтов изолируют, а НЛО отправляют для исследований на военную базу и прячут в ангаре под №18. Но друзья погибшего астронавта пытаются узнать правду о загадочном объекте, встреченном на орбите, и не хотят сидеть сложа руки, и предпринимают собственное и весьма рискованное расследование... В 80-х годах этот фильм демонстрировался в кинотеатрах по всему СССР и снискал большую популярность у зрителей. Качество: BDRip 1080p / Blu-ray 1080p Формат: MKV Видео: 1920x1080 (16:9), 23.976 fps, H264 ~ 10,6 Мбит/сек avg, 0.213 bit/pixel Аудио 1: 48 kHz, Dolby AC3, 2 ch, 192 kbps, русский дублированный Аудио 2: 48 kHz, Dolby AC3, 2 ch, 192 kbps, русский двухгоголосый Аудио 3: 48 kHz, Dolby AC3, 2 ch, 192 kbps, русский авторский Аудио 4: 48 kHz, DTS, 1 ch, 768 kbps, английский (оригинал с Blu-ray диска) Аудио 5: 48 kHz, Dolby AC3, 2 ch, 192 kbps, английский Дополнительно: Фильм разбит на главы, как на оригинальном Blu-ray диске Раздача от:
[+] MediaInfo Общее Полное имя : Angar.18.1980.D.BDRip.1080p__by_avproh.mkv Формат : Matroska Версия формата : Version 4 / Version 2 Размер файла : 8,25 Гбайт Продолжительность : 1 ч. 37 м. Общий поток : 12,1 Мбит/сек Дата кодирования : UTC 2014-02-19 07:02:37 Программа кодирования : mkvmerge v6.7.0 ('Back to the Ground') 64bit built on Jan 8 2014 15:10:52 Библиотека кодирования : libebml v1.3.0 + libmatroska v1.4.1 Видео Идентификатор : 1 Формат : AVC Формат/Информация : Advanced Video Codec Профиль формата : High@L4.1 Параметр CABAC формата : Да Параметр ReFrames формата : 4 кадра Идентификатор кодека : V_MPEG4/ISO/AVC Продолжительность : 1 ч. 37 м. Битрейт : 10,6 Мбит/сек Ширина : 1920 пикселей Высота : 1080 пикселей Соотношение сторон : 16:9 Режим частоты кадров : Постоянный Частота кадров : 23,976 кадра/сек Цветовое пространство : YUV Субдискретизация насыщенности : 4:2:0 Битовая глубина : 8 бит Тип развёртки : Прогрессивная Бит/(Пиксели*Кадры) : 0.213 Размер потока : 7,04 Гбайт (85%) Библиотека кодирования : x264 core 138 r2356 a1d3d17 Настройки программы : cabac=1 / ref=4 / deblock=1:-3:-3 / analyse=0x3:0x113 / me=umh / subme=10 / psy=1 / psy_rd=1.00:0.05 / mixed_ref=1 / me_range=32 / chroma_me=1 / trellis=2 / 8x8dct=1 / cqm=0 / deadzone=21,11 / fast_pskip=0 / chroma_qp_offset=-3 / threads=9 / lookahead_threads=1 / sliced_threads=0 / nr=0 / decimate=0 / interlaced=0 / bluray_compat=0 / constrained_intra=0 / bframes=8 / b_pyramid=2 / b_adapt=2 / b_bias=0 / direct=3 / weightb=1 / open_gop=0 / weightp=2 / keyint=240 / keyint_min=24 / scenecut=40 / intra_refresh=0 / rc_lookahead=40 / rc=2pass / mbtree=1 / bitrate=10572 / ratetol=1.0 / qcomp=0.60 / qpmin=0 / qpmax=69 / qpstep=4 / cplxblur=20.0 / qblur=0.5 / ip_ratio=1.40 / aq=1:1.00 Язык : English Default : Да Forced : Нет Аудио #1 Идентификатор : 2 Формат : AC-3 Формат/Информация : Audio Coding 3 Расширение режима : CM (complete main) Параметр Endianness формата : Big Идентификатор кодека : A_AC3 Продолжительность : 1 ч. 37 м. Вид битрейта : Постоянный Битрейт : 192 Кбит/сек Каналы : 2 канала Расположение каналов : Front: L R Частота : 48,0 КГц Битовая глубина : 16 бит Метод сжатия : С потерями Размер потока : 134 Мбайт (2%) Заголовок : Dub Язык : Russian Default : Да Forced : Нет Аудио #2 Идентификатор : 3 Формат : AC-3 Формат/Информация : Audio Coding 3 Расширение режима : CM (complete main) Параметр Endianness формата : Big Идентификатор кодека : A_AC3 Продолжительность : 1 ч. 37 м. Вид битрейта : Постоянный Битрейт : 192 Кбит/сек Каналы : 2 канала Расположение каналов : Front: L R Частота : 48,0 КГц Битовая глубина : 16 бит Метод сжатия : С потерями Размер потока : 134 Мбайт (2%) Заголовок : DVO NTV+ Язык : Russian Default : Нет Forced : Нет Аудио #3 Идентификатор : 4 Формат : AC-3 Формат/Информация : Audio Coding 3 Расширение режима : CM (complete main) Параметр Endianness формата : Big Идентификатор кодека : A_AC3 Продолжительность : 1 ч. 37 м. Вид битрейта : Постоянный Битрейт : 192 Кбит/сек Каналы : 2 канала Расположение каналов : Front: L R Частота : 48,0 КГц Битовая глубина : 16 бит Метод сжатия : С потерями Размер потока : 134 Мбайт (2%) Заголовок : AVO (Serbin) Язык : Russian Default : Нет Forced : Нет Аудио #4 Идентификатор : 5 Формат : DTS Формат/Информация : Digital Theater Systems Режим : 16 Параметр Endianness формата : Big Идентификатор кодека : A_DTS Продолжительность : 1 ч. 37 м. Вид битрейта : Постоянный Битрейт : 768 Кбит/сек Каналы : 1 канал Расположение каналов : Front: C Частота : 48,0 КГц Битовая глубина : 16 бит Метод сжатия : С потерями Размер потока : 536 Мбайт (6%) Заголовок : Original Язык : English Default : Нет Forced : Нет Аудио #5 Идентификатор : 6 Формат : AC-3 Формат/Информация : Audio Coding 3 Расширение режима : CM (complete main) Параметр Endianness формата : Big Идентификатор кодека : A_AC3 Продолжительность : 1 ч. 37 м. Вид битрейта : Постоянный Битрейт : 192 Кбит/сек Каналы : 2 канала Расположение каналов : Front: L R Частота : 48,0 КГц Битовая глубина : 16 бит Метод сжатия : С потерями Размер потока : 134 Мбайт (2%) Язык : English Default : Нет Forced : Нет Меню 00:00:00.000 : en:00:00:00.000 00:09:18.475 : en:00:09:18.475 00:22:47.199 : en:00:22:47.199 00:36:22.555 : en:00:36:22.555 00:45:44.408 : en:00:45:44.408 01:00:58.780 : en:01:00:58.780 01:10:01.406 : en:01:10:01.406 01:17:40.739 : en:01:17:40.739
[+] Скриншоты:
[+] Резервные скриншоты:
Торрент перезалит 19 февраля 2014 года, увеличен битрейт видео.

Всего файлов в раздаче: 1 
Angar.18.1980.D.BDRip.1080p_[New-Team]_by_avproh.mkv8.25 GB

Кто качает (только для создателя раздачи и модераторов):
ПользовательIP:портОтдалПринялОстатокСидируетТоррент клиентОбновился
1 Аноним 37.214.81.122:21207 27.08 MB 0.00 B 0.00 B да -UT360W- 10:57 2024-06-16

Комментарии

sanecod
Наверная лучшая фантастика моего детства. Но припомнился тот факт, что одноклассница его смотрела в Москве в другой длительности, намного длиннее, чем тут. Вроде как много сцен вырезали, не относящихся к прям сюжету ...

klaff
Респект и уважуха! Спасибище!


Зарегистрируйтесь чтобы добавить комментарий
Торрент клиент
byTorrent - программа для загрузки торрент-файлов.

Скачать byTorrent.exe (1,5 МБ)

Скачать byTorrent.zip (0,6 МБ)

Поддержи torrent.by
российских рублей
(300 российских рублей это 4$)

Обратная связь rss

End game ©