↑↓torrent.by
Поиск
Логин:  Регистрация
Пароль:

Iceboy Violet - You Said You'd Hold My Hand Through The Fire [24-bit Hi-Res] (2024) FLAC

download Скачать торрент-файл   magnet Магнитная ссылка Размер: 388.43 MB Добавлен: 2024-06-11 17:00
Пиры будут получены из сети DHT
Последний сидер был замечен вчера в 17:48
Название: You Said You'd Hold My Hand Through The Fire Исполнитель: Iceboy Violet, Nueen Год: 2024 Жанр: Electronic, Ambient Издатель (лейбл): Hyperdub Продолжительность: 00:36:32 Формат/Кодек: FLAC Тип рипа: Tracks Битрейт аудио: Lossless Разрядность: 24 Bit/44,1 kHz
[+] Трек-лист 01. Heartbreak Of A Broken Stitch (00:02:39) 02. Sm Fid (00:02:25) 03. Everything Ends With An Inhale (00:01:28) 04. Cement Skin (00:02:48) 05. Pixel Petals (00:02:56) 06. Slammd (Interlude) (00:01:40) 07. Closer (00:03:08) 08. Terrence's Time Bomb (00:02:06) 09. Fragmentary (Eraser) (00:03:03) 10. Inside My Head (Interlude) (00:02:13) 11. Still (00:02:05) 12. Fawning (Interlude) (00:02:01) 13. Kiss Me Again (6am In Helsinki) (00:02:44) 14. Through The Fire (00:02:39) 15. Sidekick (00:02:37)
[+] DRM foobar2000 1.5.5 / Замер динамического диапазона (DR) 1.1.1 ------------------------------------------------------------------------------- Анализ: Iceboy Violet / You Said You'd Hold My Hand Through The Fire -------------------------------------------------------------------------------- DR Пики RMS Продолжительность трека -------------------------------------------------------------------------------- DR6 -2.00 дБ -9.55 дБ 2:39 01-Heartbreak Of A Broken Stitch DR5 -2.00 дБ -8.22 дБ 2:25 02-Sm Fid DR6 -2.00 дБ -10.31 дБ 1:28 03-Everything Ends With An Inhale DR5 -2.00 дБ -8.25 дБ 2:48 04-Cement Skin DR4 -2.00 дБ -8.46 дБ 2:56 05-Pixel Petals DR8 -2.00 дБ -12.43 дБ 1:40 06-Slammd (Interlude) DR5 -2.00 дБ -9.14 дБ 3:08 07-Closer DR3 -2.00 дБ -7.31 дБ 2:06 08-Terrence's Time Bomb DR6 -2.04 дБ -9.66 дБ 3:03 09-Fragmentary (Eraser) DR4 -2.00 дБ -9.37 дБ 2:13 10-Inside My Head (Interlude) DR4 -2.00 дБ -7.89 дБ 2:05 11-Still DR7 -2.01 дБ -10.82 дБ 2:01 12-Fawning (Interlude) DR5 -2.28 дБ -9.09 дБ 2:44 13-Kiss Me Again (6am In Helsinki) DR5 -2.00 дБ -8.99 дБ 2:39 14-Through The Fire DR4 -2.00 дБ -9.43 дБ 2:37 15-Sidekick -------------------------------------------------------------------------------- Количество треков: 15 Реальные значения DR: DR5 Частота: 44100 Гц Каналов: 2 Разрядность: 24 Битрейт: 1551 кбит/с Кодек: FLAC ================================================================================
Время раздачи: 24/7 (минимум до появления первых 3-5 скачавших, на раздачи не возвращаюсь) Первое правило участника файлообмена: "Скачал сам - дай скачать другому!"

Всего файлов в раздаче: 16 
01. Heartbreak of a Broken Stitch.flac27.27 MB
02. SM_FID.flac24.73 MB
03. Everything Ends With An Inhale.flac14.90 MB
04. Cement Skin.flac29.06 MB
05. Pixel Petals.flac31.79 MB
06. Slammd.flac17.67 MB
07. Closer.flac35.37 MB
08. Terrence's Time Bomb.flac21.71 MB
09. Fragmentary (Eraser).flac32.38 MB
10. Inside My Head.flac22.31 MB
Показать все файлы

Комментарии


Зарегистрируйтесь чтобы добавить комментарий
Торрент клиент
byTorrent - программа для загрузки торрент-файлов.

Скачать byTorrent.exe (1,5 МБ)

Скачать byTorrent.zip (0,6 МБ)

Поддержи torrent.by
российских рублей
(300 российских рублей это 4$)

Обратная связь rss

End game ©