↑↓torrent.by
Поиск
Логин:  Регистрация
Пароль:

Почему ты? (2024) WEB-DLRip 720p

download Скачать торрент-файл   magnet Магнитная ссылка Размер: 1.89 GB Раздают: 0 Качают: 1 Добавлен: 2024-06-11 17:00
Пиры будут получены из сети DHT
Последний сидер был замечен вчера в 14:48
Информация о фильме Оригинальное название: Почему ты? Год выпуска: 2024 Жанр: мелодрама, драма Режиссер: Александр Прост В ролях: Даниил Воробьев, Ангелина Загребина, Алла Юганова, Владимир Жеребцов, Мария Шорохова, Анастасия Спирина, Анастасия Панина, Алёна Семенченко, Виктор Ряполов, Юрий Цурило Описание: Любовь приходит без спроса. Часто не к тем, не так и не тогда. Сможет ли подлинное чувство выжить, когда все началось неправильно и целый мир против? Отдать все без остатка или сдаться? Сгореть или уцелеть? Выпущено: Россия / «Наше кино», Андреевская 5 Продолжительность: 01:43:41 Субтитры: Отсутствуют Файл Формат: Matroska Качество: WEB-DLRip 720p Видео: 1280x536 at 24.000 fps, x264@L4.1, ~2230 kbps Аудио: AC3, 6 ch, ~384 kbps - | Русский | Формат субтитров: softsub (SRT) ***Рип от: -=DoMiNo=-
[+] M/I*** Дебандинг, зерно. General Unique ID : 231735719353476003457053093141092816769 (0xAE56AD1575A8CA7A1A0ECBD8A83CD781) Complete name : S:Почему.ты.2024.WEB-DLRip.720p.x264.seleZen.mkv Format : Matroska Format version : Version 4 File size : 1.89 GiB Duration : 1 h 43 min Overall bit rate : 2 616 kb/s Frame rate : 24.000 FPS Movie name : Почему.ты.2024.WEB-DLRip.720p.x264.seleZen Encoded date : 2024-06-11 08:59:38 UTC Writing application : mkvmerge v85.0 ('Shame For You') 64-bit Writing library : libebml v1.4.5 + libmatroska v1.7.1 Cover : Yes Attachments : cover.jpg / small_cover.jpg Video ID : 1 Format : AVC Format/Info : Advanced Video Codec Format profile : High@L4.1 Format settings : CABAC / 5 Ref Frames Format settings, CABAC : Yes Format settings, Reference : 5 frames Codec ID : V_MPEG4/ISO/AVC Duration : 1 h 43 min Bit rate : 2 230 kb/s Width : 1 280 pixels Height : 536 pixels Display aspect ratio : 2.39:1 Frame rate mode : Constant Frame rate : 24.000 FPS Color space : YUV Chroma subsampling : 4:2:0 Bit depth : 8 bits Scan type : Progressive Bits/(Pixel*Frame) : 0.135 Stream size : 1.62 GiB (85%) Title : -=DoMiNo=- Writing library : x264 core 164 r3191 -DoMiNo Encoding settings : cabac=1 / ref=5 / deblock=1:-2:-1 / analyse=0x3:0x133 / me=umh / subme=10 / psy=1 / psy_rd=1.00:0.15 / mixed_ref=1 / me_range=32 / chroma_me=1 / trellis=2 / 8x8dct=1 / cqm=0 / deadzone=21,11 / fast_pskip=0 / chroma_qp_offset=-3 / threads=17 / lookahead_threads=4 / sliced_threads=0 / nr=0 / decimate=1 / interlaced=0 / bluray_compat=0 / constrained_intra=0 / bframes=12 / b_pyramid=2 / b_adapt=2 / b_bias=0 / direct=3 / weightb=1 / open_gop=0 / weightp=2 / keyint=250 / keyint_min=24 / scenecut=40 / intra_refresh=0 / rc_lookahead=60 / rc=crf / mbtree=0 / crf=18.8 / qcomp=0.60 / qpmin=0 / qpmax=69 / qpstep=4 / vbv_maxrate=50000 / vbv_bufsize=62500 / crf_max=0.0 / nal_hrd=none / filler=0 / ip_ratio=1.40 / pb_ratio=1.30 / aq=1:0.90 Language : Russian Default : Yes Forced : No Color range : Limited Color primaries : BT.709 Transfer characteristics : BT.709 Matrix coefficients : BT.709 Audio ID : 2 Format : AC-3 Format/Info : Audio Coding 3 Commercial name : Dolby Digital Codec ID : A_AC3 Duration : 1 h 43 min Bit rate mode : Constant Bit rate : 384 kb/s Channel(s) : 6 channels Channel layout : L R C LFE Ls Rs Sampling rate : 48.0 kHz Frame rate : 31.250 FPS (1536 SPF) Compression mode : Lossy Stream size : 285 MiB (15%) Language : Russian Service kind : Complete Main Default : Yes Forced : No Dialog Normalization : -24 dB compr : -0.28 dB cmixlev : -3.0 dB surmixlev : -3 dB mixlevel : 285 dB roomtyp : 3 ltrtcmixlev : -3.0 dB ltrtsurmixlev : -3.0 dB lorocmixlev : -3.0 dB lorosurmixlev : -4.5 dB dialnorm_Average : -24 dB dialnorm_Minimum : -24 dB dialnorm_Maximum : -24 dB Menu 00:00:00.000 : en:Chapter 01 00:05:50.000 : en:Chapter 02 00:11:40.000 : en:Chapter 03 00:17:30.000 : en:Chapter 04 00:23:20.000 : en:Chapter 05 00:29:10.000 : en:Chapter 06 00:35:00.000 : en:Chapter 07 00:40:50.000 : en:Chapter 08 00:46:40.000 : en:Chapter 09 00:52:30.000 : en:Chapter 10 00:58:20.000 : en:Chapter 11 01:04:10.000 : en:Chapter 12 01:10:00.000 : en:Chapter 13 01:15:50.000 : en:Chapter 14 01:21:40.000 : en:Chapter 15 01:27:30.000 : en:Chapter 16 01:33:20.000 : en:Chapter 17 01:39:10.000 : en:Chapter 18
Релиз: Присоединяйся к: Кликай на баннеры.

Всего файлов в раздаче: 1 
Почему.ты.2024.WEB-DLRip.720p.x264.seleZen.mkv1.89 GB

Похожие раздачи по запросу - Почему
2024-06-15 magnet Почему ты? (2024) WEB-DLRip-AVC от ExKinoRay 744.82 MB ↑ 0 ↓ 0
2024-06-11 magnet Почему ты? (2024) WEB-DLRip от New-Team 1К1.46 GB ↑ 0 ↓ 0
2024-06-11 magnet Почему ты? (2024) WEB-DL 1080p 4.16 GB ↑ 0 ↓ 2
2024-06-09 magnet Почему я? / Why Me? (1990) BDRip-HEVC 1080p от RIPS CLUB | P, P2, A 4.15 GB ↑ 0 ↓ 0
2024-06-01 magnet Павел Крашенинников - Обрёченные мечтатели. Четыре временных правительства или почему революция была неизбежна (2023) MP3 151.52 MB ↑ 0 ↓ 0
2024-04-17 magnet Ник Трентон - Хронический пессимизм. Почему мы застреваем на негативе и что с этим делать (2024) FB2 2.18 MB ↑ 0 ↓ 0
2024-02-24 magnet Перельман Я.И. - Что? Зачем? Почему? Занимательная физика, механика, астрономия, математика, природа (2011) PDF 156.11 MB ↑ 0 ↓ 0

Кто качает (только для создателя раздачи и модераторов):
ПользовательIP:портОтдалПринялОстатокСидируетТоррент клиентОбновился
1 Аноним 16.197.128.5:32000 1.58 MB 695.03 MB 1.82 GB нет -qB4390- 03:52 2024-06-20

Комментарии

ice_man
бабы подьехали сискиии


Зарегистрируйтесь чтобы добавить комментарий
Торрент клиент
byTorrent - программа для загрузки торрент-файлов.

Скачать byTorrent.exe (1,5 МБ)

Скачать byTorrent.zip (0,6 МБ)

Поддержи torrent.by
российских рублей
(300 российских рублей это 4$)

Обратная связь rss

End game ©