↑↓torrent.by
Поиск
Логин:  Регистрация
Пароль:

Крепкий Харт 2 / Die Hart 2: Die Harter (2024) WEB-DLRip от New-Team | P2 | ViruseProject

download Скачать торрент-файл   magnet Магнитная ссылка Размер: 1.46 GB Добавлен: 2024-06-24 11:00
Пиры будут получены из сети DHT
Последний сидер был замечен 2024-06-30 09:47
Крепкий Харт 2 / Die Hart 2: Die Harter Год выпуска: 2024 Выпущено: США / Hartbeat Productions Жанр: боевик, комедия Режиссер: Эрик Аппель / Eric Appel В ролях: Кевин Харт, Натали Эммануэль, Бен Шварц, Джон Сина, Грег Крик, Пола Пелл, Мелисса Понцио, Кендрик Кросс, Тайуэйн Уитт О фильме: Харт планирует снять новаторский боевик с неожиданными сценами, чтобы закрепить за собой звание величайшего. Однако в результате неудачного выбора он становится жертвой заговора. Продолжительность: 01:32:42 Перевод: Профессиональный (двухголосый, закадровый) | ViruseProject | 18+ Субтитры: нет. Раздача от: Автор релиза: JNS82. Формат: AVI Качество: WEB-DLRip Видео: 704x352 (2,000), 23.976 fps, XviD MPEG-4 ~ 1862 kbps avg, 0.313 bit/pixel, build 73 Аудио: 48 kHz, AC3 Dolby Digital, 2/0 (L,R) ch, ~ 192 kbps | RUS | Аудио: 48 kHz, AC3 Dolby Digital, 2/0 (L,R) ch, ~ 192 kbps | ENG |
[+] MediaInfoОбщее Полное имя : D:TorrentsDie.Hart.2.Die.Harter.2024.WEB-DLRip_от New-Team.avi Формат : AVI Формат/Информация : Audio Video Interleave Размер файла : 1,46 Гбайт Продолжительность : 1 ч. 32 м. Общий поток : 2 260 Кбит/сек Программа кодирования : VirtualDubMod 1.5.10.2 (build 2540/release) Библиотека кодирования : VirtualDubMod build 2540/release Видео Идентификатор : 0 Формат : MPEG-4 Visual Профиль формата : Advanced Simple@L5 Настройки формата : BVOP1 / Custom Matrix Параметр BVOP формата : 1 Параметр QPel формата : Нет Параметр GMC формата : Без точки перехода Параметр матрицы формата : Выборочная Идентификатор кодека : XVID Идентификатор кодека/Подсказка : XviD Продолжительность : 1 ч. 32 м. Битрейт : 1 862 Кбит/сек Ширина : 704 пикселя Высота : 352 пикселя Соотношение сторон : 2,000 Частота кадров : 23,976 (24000/1001) кадра/сек Цветовое пространство : YUV Субдискретизация насыщенности : 4:2:0 Битовая глубина : 8 бит Тип развёртки : Прогрессивная Метод сжатия : С потерями Бит/(Пиксели*Кадры) : 0.313 Размер потока : 1,21 Гбайт (82%) Библиотека кодирования : XviD 73 Аудио #1 Идентификатор : 1 Формат : AC-3 Формат/Информация : Audio Coding 3 Коммерческое название : Dolby Digital Идентификатор кодека : 2000 Продолжительность : 1 ч. 32 м. Вид битрейта : Постоянный Битрейт : 192 Кбит/сек Каналы : 2 канала Channel layout : L R Частота : 48,0 КГц Частота кадров : 31,250 кадров/сек (1536 SPF) Метод сжатия : С потерями Размер потока : 127 Мбайт (8%) Выравнивание : Разделение по промежуткам Продолжительность промежутка : 42 мс. (1,00 видеокадр) Время предзагрузки промежутка : 500 мс. Service kind : Complete Main Аудио #2 Идентификатор : 2 Формат : AC-3 Формат/Информация : Audio Coding 3 Коммерческое название : Dolby Digital Идентификатор кодека : 2000 Продолжительность : 1 ч. 32 м. Вид битрейта : Постоянный Битрейт : 192 Кбит/сек Каналы : 2 канала Channel layout : L R Частота : 48,0 КГц Частота кадров : 31,250 кадров/сек (1536 SPF) Метод сжатия : С потерями Размер потока : 127 Мбайт (8%) Выравнивание : Разделение по промежуткам Продолжительность промежутка : 42 мс. (1,00 видеокадр) Время предзагрузки промежутка : 500 мс. Service kind : Complete Main

Всего файлов в раздаче: 1 
Die.Hart.2.Die.Harter.2024.WEB-DLRip_от New-Team.avi1.46 GB

Похожие раздачи по запросу - Крепкий
2024-06-27 magnet Крепкий Харт 2 / Die Hart 2: Die Harter (2024) WEB-DLRip | P2 | ViruseProject 1.46 GB ↑ 0 ↓ 0
2024-06-24 magnet Крепкий Харт 2 / Die Hart 2: Die Harter (2024) WEB-DL 720p от селезень | P2 | ViruseProject 2.54 GB ↑ 0 ↓ 0
2024-06-24 magnet Крепкий Харт 2 / Die Hart 2: Die Harter (2024) WEB-DL 1080p | ViruseProject 5.59 GB ↑ 0 ↓ 1

Комментарии


Зарегистрируйтесь чтобы добавить комментарий
Торрент клиент
byTorrent - программа для загрузки торрент-файлов.

Скачать byTorrent.exe (1,5 МБ)

Скачать byTorrent.zip (0,6 МБ)

Поддержи torrent.by
российских рублей
(300 российских рублей это 4$)

Обратная связь rss

End game ©