↑↓torrent.by
Поиск
Логин:  Регистрация
Пароль:

Скунс / Skunk (2023) WEB-DLRip-AVC | L

download Скачать торрент-файл   magnet Магнитная ссылка Размер: 2.05 GB Раздают: 2 Качают: 0 Добавлен: il68k 2024-06-24 13:36
Пиры будут получены из сети DHT
Последний сидер был замечен сегодня в 02:40
Информация о фильме Название: Скунс Оригинальное название: Skunk Год выхода: 2023 Жанр: драма Режиссер: Коэн Мортье В ролях: Тибо Думс, Колин Х. ван Экхаут, Паскаль Брекман, Элиз Гэтьен Дирк Рофтофт, Натали Броодс, Борис Ван Северен, Суфиан Фарих, Билал Абдулкадер, Реда ВерКаммен О фильме: 17-летний Лиам травмирован годами домашнего насилия. Социальная служба помещает его в закрытое учреждение, вдали от родителей, где он знакомится с руководительницей Полин. Кажется, она оказывает на него положительное влияние, но неблагополучное прошлое продолжает преследовать парня. Страна: Бельгия, Нидерланды Студия: Vlaams Audiovisueel Fonds, Nederlands Filmfonds, BNP Paribas Fortis Film Finance Продолжительность: 01:46:53 Перевод: Любительский (многоголосый закадровый) | Синема УС Файл Кодек: Н.264 Качество: WEB-DLRip-AVC Видео: MPEG-4 AVC, 2165 kbps, 1024x576 (16:9), 24.000 fps, 0.153 bit/pixel, High@L4.1 Звук 1: 48 kHz, AC3 Dolby Digital, 2/0 (L, R) ch, ~192 kbps | Синема УС Звук 2: 48 kHz, AC3 Dolby Digital, 3/2 (L, C, R, l, r) + LFE ch, ~384 kbps | Голландский Субтитры: французские Семпл
[+] Скриншоты
[+] MediaInfo raw : 1024x576p 1:1 @ 24/1 fps (cfr) x264 : using SAR=1/1 x264 : using cpu capabilities: MMX2 SSE2Fast SSSE3 SSE4.2 AVX FMA3 BMI2 AVX2 x264 : profile High, level 4.1, 4:2:0, 8-bit x264 : frame I:759 Avg QP:17.97 size: 45132 x264 : frame P:35823 Avg QP:19.33 size: 21946 x264 : frame B:117349 Avg QP:20.82 size: 7640 x264 : consecutive B-frames: 2.7% 4.3% 8.0% 24.4% 14.3% 36.1% 3.7% 3.9% 0.7% 0.9% 0.2% 0.5% 0.2% x264 : mb I I16..4: 6.4% 84.9% 8.6% x264 : mb P I16..4: 1.0% 11.4% 0.9% P16..4: 46.0% 24.8% 11.1% 0.0% 0.0% skip: 4.8% x264 : mb B I16..4: 0.0% 0.6% 0.1% B16..8: 45.2% 11.2% 2.3% direct: 5.5% skip:35.0% L0:47.0% L1:46.2% BI: 6.7% x264 : 8x8 transform intra:86.0% inter:68.2% x264 : direct mvs spatial:98.5% temporal:1.5% x264 : coded y, uvDC, uvAC intra: 87.7% 70.2% 31.1% inter: 29.2% 13.6% 3.1% x264 : i16 v, h, dc, p: 40% 12% 7% 42% x264 : i8 v, h, dc, ddl, ddr, vr, hd, vl, hu: 9% 7% 5% 10% 15% 14% 15% 12% 13% x264 : i4 v, h, dc, ddl, ddr, vr, hd, vl, hu: 10% 6% 2% 9% 17% 17% 16% 11% 12% x264 : i8c dc, h, v, p: 37% 26% 20% 17% x264 : Weighted P-Frames: Y:2.3% UV:0.9% x264 : ref P L0: 45.0% 10.5% 16.0% 6.2% 5.3% 3.7% 3.5% 1.9% 1.9% 1.5% 1.5% 1.4% 1.4% 0.1% 0.0% x264 : ref B L0: 68.6% 11.4% 6.2% 3.5% 2.5% 2.1% 1.7% 1.1% 0.9% 0.9% 0.6% 0.4% x264 : ref B L1: 93.7% 6.3% x264 : kb/s:2163.26 x264 : encoded 153931 frames, 10.89 fps, 2163.26 kb/s ====================================================================== General Unique ID: 226987630249944087722792624623452642250 (0xAAC43A37912CE7A2F0AB9E78D9875BCA) Complete name: D:\Skuns.2023.WEB-DLRip.AVC.mkv Format: Matroska Format version: Version 4 File size: 2.05 GiB Duration: 1 h 46 min Overall bit rate: 2 741 kb/s Frame rate: 24.000 FPS Movie name: Skunk (2023) WEB-DLRip-AVC _ vitolinform Encoded date: 2024-06-24 01:49:05 UTC Writing application: mkvmerge v85.0 ('Shame For You') 64-bit Writing library: libebml v1.4.5 + libmatroska v1.7.1 Attachments: poster.jpg / log.log Video ID: 1 Format: AVC Format/Info: Advanced Video Codec Format profile: High@L4.1 Format settings: CABAC / 13 Ref Frames Format settings, CABAC: Yes Format settings, Reference frames: 13 frames Codec ID: V_MPEG4/ISO/AVC Duration: 1 h 46 min Bit rate: 2 165 kb/s Width: 1 024 pixels Height: 576 pixels Display aspect ratio: 16:9 Frame rate mode: Constant Frame rate: 24.000 FPS Color space: YUV Chroma subsampling: 4:2:0 Bit depth: 8 bits Scan type: Progressive Bits/(Pixel*Frame): 0.153 Stream size: 1.62 GiB (79%) Title: Скунс / Skunk (2023) Writing library: x264 core 164 r3182 be4f020 Encoding settings: cabac=1 / ref=13 / deblock=1:-3:-3 / analyse=0x3:0x113 / me=umh / subme=10 / psy=1 / psy_rd=1.00:0.05 / mixed_ref=1 / me_range=32 / chroma_me=1 / trellis=2 / 8x8dct=1 / cqm=0 / deadzone=21, 11 / fast_pskip=0 / chroma_qp_offset=-3 / threads=12 / lookahead_threads=3 / sliced_threads=0 / nr=0 / decimate=0 / interlaced=0 / bluray_compat=0 / constrained_intra=0 / bframes=12 / b_pyramid=2 / b_adapt=2 / b_bias=0 / direct=3 / weightb=1 / open_gop=0 / weightp=2 / keyint=240 / keyint_min=24 / scenecut=40 / intra_refresh=0 / rc_lookahead=60 / rc=2pass / mbtree=0 / bitrate=2165 / ratetol=1.0 / qcomp=0.60 / qpmin=0 / qpmax=69 / qpstep=4 / cplxblur=20.0 / qblur=0.5 / vbv_maxrate=50000 / vbv_bufsize=62500 / nal_hrd=none / filler=0 / ip_ratio=1.40 / pb_ratio=1.30 / aq=1:1.00 Language: Dutch Default: Yes Forced: No Color range: Limited Color primaries: BT.709 Transfer characteristics: BT.709 Matrix coefficients: BT.709 Audio #1 ID: 2 Format: AC-3 Format/Info: Audio Coding 3 Commercial name: Dolby Digital Codec ID: A_AC3 Duration: 1 h 46 min Bit rate mode: Constant Bit rate: 192 kb/s Channel(s): 2 channels Channel layout: L R Sampling rate: 48.0 kHz Frame rate: 31.250 FPS (1536 SPF) Compression mode: Lossy Stream size: 147 MiB (7%) Title: MVO | Синема УС Language: Russian Service kind: Complete Main Default: Yes Forced: No Audio #2 ID: 3 Format: AC-3 Format/Info: Audio Coding 3 Commercial name: Dolby Digital Codec ID: A_AC3 Duration: 1 h 46 min Bit rate mode: Constant Bit rate: 384 kb/s Channel(s): 6 channels Channel layout: L R C LFE Ls Rs Sampling rate: 48.0 kHz Frame rate: 31.250 FPS (1536 SPF) Compression mode: Lossy Stream size: 294 MiB (14%) Title: Dutch Language: Dutch Service kind: Complete Main Default: No Forced: No Text ID: 4 Format: UTF-8 Codec ID: S_TEXT/UTF8 Codec ID/Info: UTF-8 Plain Text Duration: 1 h 41 min Bit rate: 34 b/s Frame rate: 0.112 FPS Count of elements: 687 Stream size: 25.7 KiB (0%) Title: Full Language: French Default: No Forced: No
Rip by vitolinform

Всего файлов в раздаче: 1 
Skuns.2023.WEB-DLRip.AVC.mkv2.05 GB

Комментарии


Зарегистрируйтесь чтобы добавить комментарий
Торрент клиент
byTorrent - программа для загрузки торрент-файлов.

Скачать byTorrent.exe (1,5 МБ)

Скачать byTorrent.zip (0,6 МБ)

Поддержи torrent.by
российских рублей
(300 российских рублей это 4$)

Обратная связь rss

End game ©