↑↓torrent.by
Поиск
Логин:  Регистрация
Пароль:

Сталкер. Черная плесень / Black Mold (2023) WEB-DL 1080p от ELEKTRI4KA | D

download Скачать торрент-файл   magnet Магнитная ссылка Размер: 3.77 GB Добавлен: 2024-06-24 17:00
Пиры будут получены из сети DHT
Последний сидер был замечен 2024-07-07 14:13
«Двое друзей пробираются в заброшенную психиатрическую клинику в поисках уникального контента, но попадают в кошмар» Информация о фильме Название: Сталкер. Черная плесень Оригинальное название: Black Mold Год выхода: 2023 Жанр: ужасы, триллер, драма Режиссер: Джон Пата В ролях: Агнес Олбрайт, Эндрю Бэйлс, Джереми Холм, Кайто Аасе, Мэйси Мерлок, Джессика Амбуэль, Кейт Рио, Лесли Люкс, Шеннон Макиннис О фильме: Молодая девушка-фотограф Брук и ее друг Таннер, пытаясь снять больше контента, ездят по заброшенным домам в поисках удачных снимков. Однажды молодые люди решают посетить психиатрическую лечебницу с привидениями. На месте Брук и Таннер находят тонны рваной одежды и гниющей мебели, а также вещи, которые указывают на то, что в этом ужасном месте кто-то жил, но, видимо, уже давно. Постепенно пребывание в стенах лечебницы начинает вызывать у них галлюцинации и тяжелые воспоминания о прошлом. А вскоре городским исследователям предстоит встреча с кошмарными местными обитателями, преследующими их по мрачным коридорам. Из-за стрессовой ситуации, в которой они оказались, молодые люди находятся в ссоре друг с другом, что ухудшает и без того опасное положение. Выпущено: США / Head Trauma Productions, The Line Film Company Продолжительность: 01:31:54 Озвучивание: Дублированное | Akimbo Production Файл Формат: MKV Качество: WEB-DL 1080p Видео: MPEG-4 AVC, 5120 Kb/s, 1920x1080 Аудио: Russian / English: AC3, 384 Kb/s (6 ch) Субтитры: Russian (Full AI) Дополнительно: Нет Релиз группы:  | Мы в Telegram:
[+] Инфо-файл:Complete name: Stalker.Chernaya.plesen.2023.WEB-DL.1080p.ELEKTRI4KA.mkv Format: Matroska Format version: Version 4 File size: 3.77 GiB Duration: 1 h 31 min Overall bit rate: 5 878 kb/s Movie name: Stalker.Chernaya.plesen.2023.WEB-DL.1080p.ELEKTRI4KA. Encoded date: UTC 2024-06-24 09:39:02 Writing application: mkvmerge v8.3.0 ('Over the Horizon') 64bit Writing library: libebml v1.3.1 + libmatroska v1.4.2 Video ID: 1 Format: AVC Format/Info: Advanced Video Codec Format profile: High@L4 Format settings: CABAC / 4 Ref Frames Format settings, CABAC: Yes Format settings, RefFrames: 4 frames Codec ID: V_MPEG4/ISO/AVC Duration: 1 h 31 min Bit rate: 5 120 kb/s Width: 1 920 pixels Height: 1 080 pixels Display aspect ratio: 16:9 Frame rate mode: Constant Frame rate: 24.000 FPS Color space: YUV Chroma subsampling: 4:2:0 Bit depth: 8 bits Scan type: Progressive Bits/(Pixel*Frame): 0.103 Stream size: 3.28 GiB (87%) Writing library: x264 core 152 r2854 e9a5903 Encoding settings: cabac=1 / ref=3 / deblock=1:0:0 / analyse=0x3:0x113 / me=hex / subme=7 / psy=1 / psy_rd=1.00:0.00 / mixed_ref=1 / me_range=16 / chroma_me=1 / trellis=1 / 8x8dct=1 / cqm=0 / deadzone=21, 11 / fast_pskip=1 / chroma_qp_offset=-2 / threads=34 / lookahead_threads=5 / sliced_threads=0 / nr=0 / decimate=1 / interlaced=0 / bluray_compat=0 / constrained_intra=0 / bframes=6 / b_pyramid=2 / b_adapt=1 / b_bias=0 / direct=1 / weightb=1 / open_gop=0 / weightp=2 / keyint=48 / keyint_min=25 / scenecut=0 / intra_refresh=0 / rc_lookahead=40 / rc=2pass / mbtree=1 / bitrate=5120 / ratetol=1.0 / qcomp=0.60 / qpmin=0 / qpmax=69 / qpstep=4 / cplxblur=20.0 / qblur=0.5 / vbv_maxrate=7680 / vbv_bufsize=20480 / nal_hrd=none / filler=0 / ip_ratio=1.40 / aq=1:1.00 Default: Yes Forced: No Audio #1 ID: 2 Format: AC-3 Format/Info: Audio Coding 3 Commercial name: Dolby Digital Codec ID: A_AC3 Duration: 1 h 31 min Bit rate mode: Constant Bit rate: 384 kb/s Channel(s): 6 channels Channel layout: L R C LFE Ls Rs Sampling rate: 48.0 kHz Frame rate: 31.250 FPS (1536 SPF) Bit depth: 16 bits Compression mode: Lossy Stream size: 252 MiB (7%) Title: DUB (Akimbo Production) Language: Russian Service kind: Complete Main Default: Yes Forced: Yes Audio #2 ID: 3 Format: AC-3 Format/Info: Audio Coding 3 Commercial name: Dolby Digital Codec ID: A_AC3 Duration: 1 h 31 min Bit rate mode: Constant Bit rate: 384 kb/s Channel(s): 6 channels Channel layout: L R C LFE Ls Rs Sampling rate: 48.0 kHz Frame rate: 31.250 FPS (1536 SPF) Bit depth: 16 bits Compression mode: Lossy Stream size: 252 MiB (7%) Title: Original Language: English Service kind: Complete Main Default: No Forced: No Text ID: 4 Format: UTF-8 Codec ID: S_TEXT/UTF8 Codec ID/Info: UTF-8 Plain Text Duration: 1 h 29 min Bit rate: 59 b/s Count of elements: 1172 Stream size: 38.6 KiB (0%) Title: Full (Al) Language: Russian Default: No Forced: No
[+] Скриншоты

Всего файлов в раздаче: 1 
Stalker.Chernaya.plesen.2023.WEB-DL.1080p.ELEKTRI4KA.mkv3.77 GB

Похожие раздачи по запросу - Сталкер
2024-06-24 magnet Сталкер. Черная плесень / Black Mold (2023) WEB-DLRip от ELEKTRI4KA | D 1.46 GB ↑ 0 ↓ 0

Комментарии


Зарегистрируйтесь чтобы добавить комментарий
Торрент клиент
byTorrent - программа для загрузки торрент-файлов.

Скачать byTorrent.exe (1,5 МБ)

Скачать byTorrent.zip (0,6 МБ)

Поддержи torrent.by
российских рублей
(300 российских рублей это 4$)

Обратная связь rss

End game ©