↑↓torrent.by
Поиск
Логин:  Регистрация
Пароль:

Воображаемые друзья / IF (2024) WEB-DLRip 720p от DoMiNo & селезень | D, P | Red Head Sound, Jaskier, TVShows

download Скачать торрент-файл   magnet Магнитная ссылка Размер: 3.02 GB Раздают: 1 Качают: 2 Добавлен: 2024-06-24 17:00
Пиры будут получены из сети DHT
Последний сидер был замечен сегодня в 19:00
Информация о фильме Название: Воображаемые друзья Оригинальное название: IF Год выхода: 2024 Жанр: фэнтези, мультфильм, драма, комедия, семейный Режиссер: Джон Красински В ролях: Кэйли Флеминг, Райан Рейнольдс, Джон Красински, Фиона Шоу, Стив Карелл, Фиби Уоллер-Бридж, Луис Госсетт мл., Алан С. Ким, Лайза Колон-Зайас, Бобби Мойнахан О фильме: Что если выдуманные приятели детей существуют на самом деле и никуда не исчезают, когда ребенок взрослеет? В таком мире живет Беа — похоронившая мать 12-летняя девочка, которая однажды замечает огромного фиолетового монстра, гуляющего по улицам Нью-Йорка. Девочке быстро объясняют, как на самом деле устроен мир, поэтому Беа решает напоминать скучным взрослым о тех, кого они когда-то забыли. Страна: США, Канада Студия: Maximum Effort, Paramount Pictures, Platinum Dunes Продолжительность: 01:47:25 Перевод 1: Дублированный (неофициальный) | Red Head Sound Перевод 2: Профессиональный (многоголосый закадровый) | Jaskier Перевод 3: Профессиональный (многоголосый закадровый) | TVShows Субтитры: Русские (2x Full), Английские Файл Формат: Matroska Качество: WEB-DLRip 720p Видео: 1280x692 at 23.976 fps, x264@L4.1, ~2672 kbps Аудио 1: AC3, 2 ch, ~192 kbps - | Русский | | Red Head Sound Аудио 2: AC3, 6 ch, ~384 kbps - | Русский | | Jaskier Аудио 3: AC3, 6 ch, ~384 kbps - | Русский | | TVShows Аудио 4: AC3, 6 ch, ~384 kbps - | Английский | Формат субтитров: softsub (SRT) ***Рип от: -=DoMiNo=-
[+] M/Ix264 : frame I:1146 Avg QP:15.68 size: 95021 x264 : frame P:39596 Avg QP:18.12 size: 29445 x264 : frame B:113793 Avg QP:19.99 size: 7714 General Unique ID : 330069849344404411202442425534579579783 (0xF85124023D66003F0C2749268FF59B87) Complete name : U:IF.2024.D.P.WEB-DLRip.720p.x264.seleZen.mkv Format : Matroska Format version : Version 4 File size : 3.02 GiB Duration : 1 h 47 min Overall bit rate : 4 019 kb/s Frame rate : 23.976 FPS Movie name : IF.2024.D.P.WEB-DLRip.720p.x264.seleZen Encoded date : 2024-06-24 09:56:20 UTC Writing application : mkvmerge v85.0 ('Shame For You') 64-bit Writing library : libebml v1.4.5 + libmatroska v1.7.1 Cover : Yes Attachments : cover.jpg / small_cover.jpg Video ID : 1 Format : AVC Format/Info : Advanced Video Codec Format profile : High@L4.1 Format settings : CABAC / 5 Ref Frames Format settings, CABAC : Yes Format settings, Reference : 5 frames Codec ID : V_MPEG4/ISO/AVC Duration : 1 h 47 min Bit rate : 2 672 kb/s Width : 1 280 pixels Height : 692 pixels Display aspect ratio : 1.85:1 Frame rate mode : Constant Frame rate : 23.976 (24000/1001) FPS Color space : YUV Chroma subsampling : 4:2:0 Bit depth : 8 bits Scan type : Progressive Bits/(Pixel*Frame) : 0.126 Stream size : 2.00 GiB (66%) Title : -=DoMiNo=- Writing library : x264 core 164 r3191 -DoMiNo Encoding settings : cabac=1 / ref=5 / deblock=1:-2:-1 / analyse=0x3:0x133 / me=umh / subme=10 / psy=1 / psy_rd=1.00:0.15 / mixed_ref=1 / me_range=32 / chroma_me=1 / trellis=2 / 8x8dct=1 / cqm=0 / deadzone=21,11 / fast_pskip=0 / chroma_qp_offset=-3 / threads=22 / lookahead_threads=5 / sliced_threads=0 / nr=0 / decimate=1 / interlaced=0 / bluray_compat=0 / constrained_intra=0 / bframes=10 / b_pyramid=2 / b_adapt=2 / b_bias=0 / direct=3 / weightb=1 / open_gop=0 / weightp=2 / keyint=240 / keyint_min=23 / scenecut=40 / intra_refresh=0 / rc_lookahead=60 / rc=crf / mbtree=0 / crf=19.3 / qcomp=0.60 / qpmin=0 / qpmax=69 / qpstep=4 / vbv_maxrate=50000 / vbv_bufsize=62500 / crf_max=0.0 / nal_hrd=none / filler=0 / ip_ratio=1.40 / pb_ratio=1.30 / aq=3:0.90 Language : English Default : Yes Forced : No Color range : Limited Color primaries : BT.709 Transfer characteristics : BT.709 Matrix coefficients : BT.709 Audio #1 ID : 2 Format : AC-3 Format/Info : Audio Coding 3 Commercial name : Dolby Digital Codec ID : A_AC3 Duration : 1 h 47 min Bit rate mode : Constant Bit rate : 192 kb/s Channel(s) : 2 channels Channel layout : L R Sampling rate : 48.0 kHz Frame rate : 31.250 FPS (1536 SPF) Compression mode : Lossy Stream size : 148 MiB (5%) Title : Dub -Red Head Sound Language : Russian Service kind : Complete Main Default : Yes Forced : No Dialog Normalization : -31 dB compr : -0.28 dB dsurmod : Not Dolby Surround encoded ltrtcmixlev : 3.0 dB ltrtsurmixlev : 3.0 dB lorocmixlev : 3.0 dB lorosurmixlev : 3.0 dB dialnorm_Average : -31 dB dialnorm_Minimum : -31 dB dialnorm_Maximum : -31 dB Audio #2 ID : 3 Format : AC-3 Format/Info : Audio Coding 3 Commercial name : Dolby Digital Codec ID : A_AC3 Duration : 1 h 47 min Bit rate mode : Constant Bit rate : 384 kb/s Channel(s) : 6 channels Channel layout : L R C LFE Ls Rs Sampling rate : 48.0 kHz Frame rate : 31.250 FPS (1536 SPF) Compression mode : Lossy Stream size : 295 MiB (10%) Title : MVO - Jaskier Language : Russian Service kind : Complete Main Default : No Forced : No Dialog Normalization : -31 dB cmixlev : -4.5 dB surmixlev : -6 dB dialnorm_Average : -31 dB dialnorm_Minimum : -31 dB dialnorm_Maximum : -31 dB Audio #3 ID : 4 Format : AC-3 Format/Info : Audio Coding 3 Commercial name : Dolby Digital Codec ID : A_AC3 Duration : 1 h 47 min Bit rate mode : Constant Bit rate : 384 kb/s Channel(s) : 6 channels Channel layout : L R C LFE Ls Rs Sampling rate : 48.0 kHz Frame rate : 31.250 FPS (1536 SPF) Compression mode : Lossy Stream size : 295 MiB (10%) Title : MVO - TVShows Language : Russian Service kind : Complete Main Default : No Forced : No Dialog Normalization : -31 dB cmixlev : -4.5 dB surmixlev : -6 dB dialnorm_Average : -31 dB dialnorm_Minimum : -31 dB dialnorm_Maximum : -31 dB Audio #4 ID : 5 Format : AC-3 Format/Info : Audio Coding 3 Commercial name : Dolby Digital Codec ID : A_AC3 Duration : 1 h 47 min Bit rate mode : Constant Bit rate : 384 kb/s Channel(s) : 6 channels Channel layout : L R C LFE Ls Rs Sampling rate : 48.0 kHz Frame rate : 31.250 FPS (1536 SPF) Compression mode : Lossy Stream size : 295 MiB (10%) Language : English Service kind : Complete Main Default : No Forced : No Dialog Normalization : -31 dB cmixlev : -4.5 dB surmixlev : -6 dB dialnorm_Average : -31 dB dialnorm_Minimum : -31 dB dialnorm_Maximum : -31 dB Text #1 ID : 6 Format : UTF-8 Codec ID : S_TEXT/UTF8 Codec ID/Info : UTF-8 Plain Text Duration : 1 h 36 min Bit rate : 71 b/s Frame rate : 0.214 FPS Count of elements : 1238 Stream size : 50.3 KiB (0%) Title : Full v1 Language : Russian Default : No Forced : No Text #2 ID : 7 Format : UTF-8 Codec ID : S_TEXT/UTF8 Codec ID/Info : UTF-8 Plain Text Duration : 1 h 37 min Bit rate : 81 b/s Frame rate : 0.243 FPS Count of elements : 1419 Stream size : 58.0 KiB (0%) Title : Full v2 Language : Russian Default : No Forced : No Text #3 ID : 8 Format : UTF-8 Codec ID : S_TEXT/UTF8 Codec ID/Info : UTF-8 Plain Text Duration : 1 h 37 min Bit rate : 53 b/s Frame rate : 0.243 FPS Count of elements : 1415 Stream size : 37.9 KiB (0%) Title : English (SDH) Language : English (US) Default : No Forced : No Menu 00:00:00.000 : en:Scene 01 01:37:18.208 : en:Credits
Релиз: Присоединяйся к: Кликай на баннеры.

Всего файлов в раздаче: 1 
IF.2024.D.P.WEB-DLRip.720p.x264.seleZen.mkv3.02 GB

Похожие раздачи по запросу - Воображаемые
2024-06-24 magnet Воображаемые друзья / IF (2024) WEB-DL 1080p от New-Team | D, P 6.92 GB ↑ 0 ↓ 3
2024-06-24 magnet Воображаемые друзья / IF (2024) WEB-DL 1080p от New-Team | P | TVShows, Jaskier 6.77 GB ↑ 0 ↓ 0
2024-06-24 magnet Воображаемые друзья / IF (2024) WEB-DLRip от MegaPeer | D | Red Head Sound 1.46 GB ↑ 0 ↓ 1
2024-06-24 magnet Воображаемые друзья / Уявні друзі / IF (2024) WEB-DL-HEVC 2160p | 4K | SDR | D | Line | UKR 11.48 GB ↑ 0 ↓ 0
2024-06-22 magnet Воображаемые друзья / Уявні друзі / IF (2024) WEB-DL 1080p | D | Line | UKR 6.34 GB ↑ 0 ↓ 0
2024-06-21 magnet Воображаемые друзья / IF (2024) WEB-DLRip от DoMiNo & селезень | P | Jaskier 1.46 GB ↑ 1 ↓ 0
2024-06-21 magnet Воображаемые друзья / IF (2024) WEB-DL 1080p от Jaskier | P 6.49 GB ↑ 0 ↓ 0

Комментарии


Зарегистрируйтесь чтобы добавить комментарий
Торрент клиент
byTorrent - программа для загрузки торрент-файлов.

Скачать byTorrent.exe (1,5 МБ)

Скачать byTorrent.zip (0,6 МБ)

Поддержи torrent.by
российских рублей
(300 российских рублей это 4$)

Обратная связь rss

End game ©