↑↓torrent.by
Поиск
Логин:  Регистрация
Пароль:

Воображаемые друзья / IF (2024) WEB-DL 1080p от New-Team | D, P

download Скачать торрент-файл   magnet Магнитная ссылка Размер: 6.92 GB Раздают: 0 Качают: 4 Добавлен: 2024-06-24 17:00
Пиры будут получены из сети DHT
Последний сидер был замечен 2024-07-20 17:14
Воображаемые друзья / IF Год выпуска: 2024 Выпущено: США, Канада, Paramount Pictures, Maximum Effort, Platinum Dunes Жанр: Фэнтези, мультфильм, драма, комедия, семейный Режиссер: Джон Красински / John Krasinski В ролях: Кэйли Флеминг, Райан Рейнольдс, Джон Красински, Фиона Шоу, Стив Карелл, Фиби Уоллер-Бридж, Луис Госсетт мл., Алан С. Ким, Лайза Колон-Зайас, Бобби Мойнахан О фильме: Беа заводит знакомства с воображаемыми друзьями, которых бросили их хозяева. Продолжительность: 01:47:25 Перевод: #1: Дублированный (неофициальный) | Red Head Sound #2: Профессиональный (многоголосый, закадровый) | TVShows #3: Профессиональный (многоголосый, закадровый) | Jaskier Субтитры: Русские (full (FOCS)), английские (SDH) Раздача от: Автор релиза: JNS82. Формат: MKV Качество: WEB-DL 1080p | AMZN Видео: MPEG-4 AVC, (1,85:1), 1920@1924x1040, 7617 Кбит/с, 23,976 fps Аудио #1: 48 kHz, AC3 Dolby Digital, 2/0 (L,R) ch, ~ 192 kbps | RUS | Аудио #2: 48 kHz, AC3 Dolby Digital, 3/2 (L,C,R,l,r) + LFE ch, ~ 384 kbps | RUS | Аудио #3: 48 kHz, AC3 Dolby Digital, 3/2 (L,C,R,l,r) + LFE ch, ~ 384 kbps | RUS | Аудио #4: 48 kHz, E-AC3 Dolby Digital, 3/2 (L,C,R,l,r) + LFE ch, ~ 640 kbps | ENG |
[+] MediaInfoОбщее Уникальный идентификатор : 222440266807481400379912004435392957310 (0xA7586FE3B39F5FDEEAB10149B9398B7E) Полное имя : D:TorrentsIF.2024.1080p.AMZN_от New-Team.mkv Формат : Matroska Версия формата : Version 4 Размер файла : 6,92 Гбайт Продолжительность : 1 ч. 47 м. Общий поток : 9 220 Кбит/сек Название фильма : IF.2024.1080p.AMZN_от New-Team Дата кодирования : UTC 2024-06-24 09:28:42 Программа кодирования : mkvmerge v79.0 ('Funeral Pyres') 64-bit Библиотека кодирования : libebml v1.4.4 + libmatroska v1.7.1 Видео Идентификатор : 1 Формат : AVC Формат/Информация : Advanced Video Codec Профиль формата : High@L4 Настройки формата : CABAC / 4 Ref Frames Параметр CABAC формата : Да Параметр RefFrames формата : 4 кадра Идентификатор кодека : V_MPEG4/ISO/AVC Продолжительность : 1 ч. 47 м. Вид битрейта : Постоянный Битрейт : 7 617 Кбит/сек Номинальный битрейт : 10 000 Кбит/сек Ширина : 1 920 пикселей Высота : 1 040 пикселей Соотношение сторон : 1,85:1 Режим частоты кадров : Постоянный Частота кадров : 23,976 (24000/1001) кадра/сек Цветовое пространство : YUV Субдискретизация насыщенности : 4:2:0 Битовая глубина : 8 бит Тип развёртки : Прогрессивная Бит/(Пиксели*Кадры) : 0.159 Размер потока : 5,72 Гбайт (83%) Язык : English Default : Да Forced : Нет Цветовой диапазон : Limited Основные цвета : BT.709 Характеристики трансфера : BT.709 Коэффициенты матрицы : BT.709 Аудио #1 Идентификатор : 2 Формат : AC-3 Формат/Информация : Audio Coding 3 Коммерческое название : Dolby Digital Идентификатор кодека : A_AC3 Продолжительность : 1 ч. 47 м. Вид битрейта : Постоянный Битрейт : 192 Кбит/сек Каналы : 2 канала Channel layout : L R Частота : 48,0 КГц Частота кадров : 31,250 кадров/сек (1536 SPF) Метод сжатия : С потерями Размер потока : 148 Мбайт (2%) Заголовок : DUB - Red Head Sound Язык : Russian Service kind : Complete Main Default : Да Forced : Нет Аудио #2 Идентификатор : 3 Формат : AC-3 Формат/Информация : Audio Coding 3 Коммерческое название : Dolby Digital Идентификатор кодека : A_AC3 Продолжительность : 1 ч. 47 м. Вид битрейта : Постоянный Битрейт : 384 Кбит/сек Каналы : 6 каналов Channel layout : L R C LFE Ls Rs Частота : 48,0 КГц Частота кадров : 31,250 кадров/сек (1536 SPF) Метод сжатия : С потерями Размер потока : 295 Мбайт (4%) Заголовок : MVO - TVShows Язык : Russian Service kind : Complete Main Default : Нет Forced : Нет Аудио #3 Идентификатор : 4 Формат : AC-3 Формат/Информация : Audio Coding 3 Коммерческое название : Dolby Digital Идентификатор кодека : A_AC3 Продолжительность : 1 ч. 47 м. Вид битрейта : Постоянный Битрейт : 384 Кбит/сек Каналы : 6 каналов Channel layout : L R C LFE Ls Rs Частота : 48,0 КГц Частота кадров : 31,250 кадров/сек (1536 SPF) Метод сжатия : С потерями Размер потока : 295 Мбайт (4%) Заголовок : MVO - Jaskier Язык : Russian Service kind : Complete Main Default : Нет Forced : Нет Аудио #4 Идентификатор : 5 Формат : E-AC-3 Формат/Информация : Enhanced AC-3 Коммерческое название : Dolby Digital Plus Идентификатор кодека : A_EAC3 Продолжительность : 1 ч. 47 м. Вид битрейта : Постоянный Битрейт : 640 Кбит/сек Каналы : 6 каналов Channel layout : L R C LFE Ls Rs Частота : 48,0 КГц Частота кадров : 31,250 кадров/сек (1536 SPF) Метод сжатия : С потерями Размер потока : 492 Мбайт (7%) Заголовок : Original Язык : English Service kind : Complete Main Default : Нет Forced : Нет Текст #1 Идентификатор : 6 Формат : UTF-8 Идентификатор кодека : S_TEXT/UTF8 Идентификатор кодека/Информация : UTF-8 Plain Text Продолжительность : 1 ч. 36 м. Битрейт : 71 бит/сек Count of elements : 1242 Размер потока : 50,6 Кбайт (0%) Заголовок : ] Язык : Russian Default : Нет Forced : Нет Текст #2 Идентификатор : 7 Формат : UTF-8 Идентификатор кодека : S_TEXT/UTF8 Идентификатор кодека/Информация : UTF-8 Plain Text Продолжительность : 1 ч. 37 м. Битрейт : 53 бит/сек Count of elements : 1415 Размер потока : 37,9 Кбайт (0%) Заголовок : English (SDH) Язык : English Default : Нет Forced : Нет Меню 00:00:00.000 : en:Scene 01 01:37:18.208 : en:Credits

Всего файлов в раздаче: 1 
IF.2024.1080p.AMZN_от New-Team.mkv6.92 GB

Похожие раздачи по запросу - Воображаемые
2024-07-17 magnet Воображаемые друзья / IF (2024) WEB-DLRip от MegaPeer | D | Videofilm Int 1.45 GB ↑ 0 ↓ 0
2024-07-17 magnet Воображаемые друзья / IF (2024) WEB-DL 1080p | D 6.55 GB ↑ 70 ↓ 5
2024-06-24 magnet Воображаемые друзья / IF (2024) WEB-DLRip 720p от DoMiNo & селезень | D, P | Red Head Sound, Jaskier, TVShows 3.02 GB ↑ 0 ↓ 1
2024-06-24 magnet Воображаемые друзья / IF (2024) WEB-DL 1080p от New-Team | P | TVShows, Jaskier 6.77 GB ↑ 0 ↓ 0
2024-06-24 magnet Воображаемые друзья / IF (2024) WEB-DLRip от MegaPeer | D | Red Head Sound 1.46 GB ↑ 0 ↓ 0
2024-06-24 magnet Воображаемые друзья / Уявні друзі / IF (2024) WEB-DL-HEVC 2160p | 4K | SDR | D | Line | UKR 11.48 GB ↑ 0 ↓ 0
2024-06-22 magnet Воображаемые друзья / Уявні друзі / IF (2024) WEB-DL 1080p | D | Line | UKR 6.34 GB ↑ 0 ↓ 0

Комментарии


Зарегистрируйтесь чтобы добавить комментарий
Торрент клиент
byTorrent - программа для загрузки торрент-файлов.

Скачать byTorrent.exe (1,5 МБ)

Скачать byTorrent.zip (0,6 МБ)

Поддержи torrent.by
российских рублей
(300 российских рублей это 4$)

Обратная связь rss

End game ©