↑↓torrent.by
Поиск
Логин:  Регистрация
Пароль:

Крепкий Харт 2 / Die Hart 2: Die Harter (2024) WEB-DL 720p от селезень | P2 | ViruseProject

download Скачать торрент-файл   magnet Магнитная ссылка Размер: 2.54 GB Добавлен: 2024-06-24 17:00
Пиры будут получены из сети DHT
Последний сидер был замечен 2024-07-07 09:20
Информация о фильме Название: Крепкий Харт 2 Оригинальное название: Die Hart 2: Die Harter Год выхода: 2024 Жанр: боевик, комедия Режиссер: Эрик Аппель В ролях: Кевин Харт, Натали Эммануэль, Бен Шварц, Пола Пелл, Джон Сина, Грег Крик, Мелисса Понцио и др. О фильме: Исполнив свою мечту превратиться из комика на подпевках в звезду крутых боевиков, голливудский актёр Кевин Харт пытается взять новую высоту: он хочет стать первопроходцем в создании самого реалистичного, построенного на импровизациях и настоящих драках экшена. Не без труда он находит продюсера, готового поддержать проект, однако, когда начинаются «съёмки», даже Кевину кажется, что драки слишком уж реалистичные. Да тут ещё и пули свистят вполне боевые. Страна: США Продолжительность: 01:32:42 Перевод: Профессиональный (двухголосый, закадровый) | ViruseProject Субтитры: Английские (Full, SDH) Файл Формат: Matroska Качество: WEB-DL 720p | AMZN Видео: 1280x720 at 23.976 fps, MPEG-4 AVC, ~2900 kbps Аудио 1: AC3, 2 ch, ~384 kbps - | Русский | Аудио 2: E-AC3, 6 ch, ~640 kbps - | Английский | Формат субтитров: softsub (SRT)
[+] M/IGeneral Unique ID : 299884097200750158113337692676541698479 (0xE19B938611143528C1697ADCB468D1AF) Complete name : U:Die.Hart.2.Die.Harter.2024.AMZN.WEB-DL.720p.x264.seleZen.mkv Format : Matroska Format version : Version 4 File size : 2.54 GiB Duration : 1 h 32 min Overall bit rate : 3 928 kb/s Frame rate : 23.976 FPS Movie name : Die.Hart.2.Die.Harter.2024.AMZN.WEB-DL.720p.x264.seleZen Encoded date : 2024-06-24 08:01:35 UTC Writing application : mkvmerge v85.0 ('Shame For You') 64-bit Writing library : libebml v1.4.5 + libmatroska v1.7.1 Cover : Yes Attachments : cover.jpg / small_cover.jpg Video ID : 1 Format : AVC Format/Info : Advanced Video Codec Format profile : High@L3.1 Format settings : CABAC / 4 Ref Frames Format settings, CABAC : Yes Format settings, Reference : 4 frames Codec ID : V_MPEG4/ISO/AVC Duration : 1 h 32 min Bit rate mode : Constant Bit rate : 2 900 kb/s Nominal bit rate : 4 000 kb/s Width : 1 280 pixels Height : 720 pixels Display aspect ratio : 16:9 Frame rate mode : Constant Frame rate : 23.976 (24000/1001) FPS Color space : YUV Chroma subsampling : 4:2:0 Bit depth : 8 bits Scan type : Progressive Bits/(Pixel*Frame) : 0.131 Stream size : 1.88 GiB (74%) Title : -=DoMiNo=- Language : English (US) Default : Yes Forced : No Color range : Limited Color primaries : BT.709 Transfer characteristics : BT.709 Matrix coefficients : BT.709 Audio #1 ID : 2 Format : AC-3 Format/Info : Audio Coding 3 Commercial name : Dolby Digital Codec ID : A_AC3 Duration : 1 h 32 min Bit rate mode : Constant Bit rate : 384 kb/s Channel(s) : 2 channels Channel layout : L R Sampling rate : 48.0 kHz Frame rate : 31.250 FPS (1536 SPF) Compression mode : Lossy Stream size : 255 MiB (10%) Title : ViruseProject Language : Russian Service kind : Complete Main Default : Yes Forced : No Dialog Normalization : -31 dB dialnorm_Average : -31 dB dialnorm_Minimum : -31 dB dialnorm_Maximum : -31 dB Audio #2 ID : 3 Format : E-AC-3 Format/Info : Enhanced AC-3 Commercial name : Dolby Digital Plus Codec ID : A_EAC3 Duration : 1 h 32 min Bit rate mode : Constant Bit rate : 640 kb/s Channel(s) : 6 channels Channel layout : L R C LFE Ls Rs Sampling rate : 48.0 kHz Frame rate : 31.250 FPS (1536 SPF) Compression mode : Lossy Stream size : 424 MiB (16%) Language : English (US) Service kind : Complete Main Default : No Forced : No Dialog Normalization : -31 dB compr : -0.28 dB dialnorm_Average : -31 dB dialnorm_Minimum : -31 dB dialnorm_Maximum : -31 dB Text #1 ID : 4 Format : UTF-8 Codec ID : S_TEXT/UTF8 Codec ID/Info : UTF-8 Plain Text Duration : 1 h 28 min Bit rate : 105 b/s Frame rate : 0.394 FPS Count of elements : 2085 Stream size : 68.2 KiB (0%) Language : English (US) Default : No Forced : No Text #2 ID : 5 Format : UTF-8 Codec ID : S_TEXT/UTF8 Codec ID/Info : UTF-8 Plain Text Duration : 1 h 30 min Bit rate : 109 b/s Frame rate : 0.410 FPS Count of elements : 2236 Stream size : 72.6 KiB (0%) Title : SDH Language : English (US) Default : No Forced : No Menu 00:00:00.000 : en:Scene 1 01:32:37.000 : en:Outro
Релиз: Присоединяйся к: Кликай на баннеры.

Всего файлов в раздаче: 1 
Die.Hart.2.Die.Harter.2024.AMZN.WEB-DL.720p.x264.seleZen.mkv2.54 GB

Похожие раздачи по запросу - Крепкий
2024-06-27 magnet Крепкий Харт 2 / Die Hart 2: Die Harter (2024) WEB-DLRip | P2 | ViruseProject 1.46 GB ↑ 0 ↓ 0
2024-06-24 magnet Крепкий Харт 2 / Die Hart 2: Die Harter (2024) WEB-DLRip от New-Team | P2 | ViruseProject 1.46 GB ↑ 0 ↓ 0
2024-06-24 magnet Крепкий Харт 2 / Die Hart 2: Die Harter (2024) WEB-DL 1080p | ViruseProject 5.59 GB ↑ 0 ↓ 0

Комментарии


Зарегистрируйтесь чтобы добавить комментарий
Торрент клиент
byTorrent - программа для загрузки торрент-файлов.

Скачать byTorrent.exe (1,5 МБ)

Скачать byTorrent.zip (0,6 МБ)

Поддержи torrent.by
российских рублей
(300 российских рублей это 4$)

Обратная связь rss

End game ©