↑↓torrent.by
Поиск
Логин:  Регистрация
Пароль:

Фуриоса: Хроники Безумного Макса / Furiosa: A Mad Max Saga (2024) WEB-DL 1080p от JNS82 | L

download Скачать торрент-файл   magnet Магнитная ссылка Размер: 7.80 GB Раздают: 1 Качают: 6 Добавлен: il68k 2024-06-24 18:31
Пиры будут получены из сети DHT
Последний сидер был замечен сегодня в 16:11
Фуриоса: Хроники Безумного Макса / Furiosa: A Mad Max Saga Год выпуска: 2024 Выпущено: Австралия, США / Warner Bros., Kennedy Miller Mitchell Жанр: фантастика, боевик Режиссер: Джордж Миллер / George Miller В ролях: Аня Тейлор-Джой, Крис Хемсворт, Том Бёрк, Алила Браун, Джордж Шевцов, Лейчи Халм, Джон Ховард, Энгус Сэмпсон, Чарли Фрейзер, Эльза Патаки О фильме: История похищения юной воительницы Фуриосы из Зелёных Земель, в результате которого девушка попадает в руки орды байкеров под предводительством Военачальника Дементуса. Пробираясь через Пустошь, они натыкаются на Цитадель, которой управляет Бессмертный Джо, и пока два тирана борются за господство, Фуриосе предстоит пережить множество испытаний, пытаясь найти путь домой. Продолжительность: 02:28:11 Перевод: Любительский (многоголосый, закадровый) | Soundmasters Субтитры: английские Автор релиза: JNS82. Формат: MKV Качество: WEB-DL 1080p Видео: MPEG-4 AVC, (2, 40:1), 1920x804, 6401 Кбит/с, 23, 976 fps Аудио #1: 48 kHz, AC3 Dolby Digital, 2/0 (L, R) ch, ~ 224 kbps | RUS | Аудио #2: 48 kHz, E-AC3 JOC Dolby Digital, 3/2 (L, C, R, l, r) + LFE ch, ~ 768 kbps | ENG |
[+] MediaInfoОбщее Уникальный идентификатор: 122884129106676663501458695725761813256 (0x5C729F5530B223D705828246AD19DB08) Полное имя: D:TorrentsFuriosa.A.Mad.Max.Saga.2024.WEB-DL.1080p_от_JNS82.mkv Формат: Matroska Версия формата: Version 4 Размер файла: 7, 80 Гбайт Продолжительность: 2 ч. 28 м. Общий поток: 7 539 Кбит/сек Название фильма: Furiosa.A.Mad.Max.Saga.2024.WEB-DL.1080p_от_JNS82 Дата кодирования: UTC 2024-06-24 11:29:06 Программа кодирования: mkvmerge v79.0 ('Funeral Pyres') 64-bit Библиотека кодирования: libebml v1.4.4 + libmatroska v1.7.1 Видео Идентификатор: 1 Формат: AVC Формат/Информация: Advanced Video Codec Профиль формата: High@L4 Настройки формата: CABAC / 5 Ref Frames Параметр CABAC формата: Да Параметр RefFrames формата: 5 кадров Идентификатор кодека: V_MPEG4/ISO/AVC Продолжительность: 2 ч. 28 м. Битрейт: 6 544 Кбит/сек Ширина: 1 920 пикселей Высота: 804 пикселя Соотношение сторон: 2, 40:1 Режим частоты кадров: Постоянный Частота кадров: 23, 976 (24000/1001) кадра/сек Цветовое пространство: YUV Субдискретизация насыщенности: 4:2:0 Битовая глубина: 8 бит Тип развёртки: Прогрессивная Бит/(Пиксели*Кадры): 0.177 Размер потока: 6, 77 Гбайт (87%) Язык: English Default: Да Forced: Нет Цветовой диапазон: Limited Основные цвета: BT.709 Характеристики трансфера: BT.709 Коэффициенты матрицы: BT.709 Аудио #1 Идентификатор: 2 Формат: AC-3 Формат/Информация: Audio Coding 3 Коммерческое название: Dolby Digital Идентификатор кодека: A_AC3 Продолжительность: 2 ч. 28 м. Вид битрейта: Постоянный Битрейт: 224 Кбит/сек Каналы: 2 канала Channel layout: L R Частота: 48, 0 КГц Частота кадров: 31, 250 кадров/сек (1536 SPF) Метод сжатия: С потерями Размер потока: 237 Мбайт (3%) Заголовок: MVO - Soundmasters Язык: Russian Service kind: Complete Main Default: Да Forced: Нет Аудио #2 Идентификатор: 3 Формат: E-AC-3 JOC Формат/Информация: Enhanced AC-3 with Joint Object Coding Коммерческое название: Dolby Digital Plus with Dolby Atmos Идентификатор кодека: A_EAC3 Продолжительность: 2 ч. 28 м. Вид битрейта: Постоянный Битрейт: 768 Кбит/сек Каналы: 6 каналов Channel layout: L R C LFE Ls Rs Частота: 48, 0 КГц Частота кадров: 31, 250 кадров/сек (1536 SPF) Метод сжатия: С потерями Размер потока: 814 Мбайт (10%) Заголовок: Original Язык: English Service kind: Complete Main Default: Нет Forced: Нет Complexity index: 16 Number of dynamic objects: 15 Bed channel count: 1 канал Bed channel configuration: LFE Текст #1 Идентификатор: 4 Формат: UTF-8 Идентификатор кодека: S_TEXT/UTF8 Идентификатор кодека/Информация: UTF-8 Plain Text Продолжительность: 2 ч. 16 м. Битрейт: 28 бит/сек Count of elements: 1050 Размер потока: 28, 1 Кбайт (0%) Язык: English Default: Нет Forced: Нет Текст #2 Идентификатор: 5 Формат: UTF-8 Идентификатор кодека: S_TEXT/UTF8 Идентификатор кодека/Информация: UTF-8 Plain Text Продолжительность: 2 ч. 17 м. Битрейт: 36 бит/сек Count of elements: 1401 Размер потока: 36, 7 Кбайт (0%) Заголовок: SDH Язык: English Default: Нет Forced: Нет Меню 00:00:00.000: en:Chapter 01 00:10:19.369: en:Chapter 02 00:20:10.627: en:Chapter 03 00:29:00.240: en:Chapter 04 00:40:06.656: en:Chapter 05 00:53:12.692: en:Chapter 06 01:00:35.635: en:Chapter 07 01:19:05.745: en:Chapter 08 01:28:55.919: en:Chapter 09 01:40:17.684: en:Chapter 10 01:49:44.751: en:Chapter 11 01:59:16.906: en:Chapter 12 02:06:08.693: en:Chapter 13 02:17:44.681: en:Chapter 14

Всего файлов в раздаче: 1 
Furiosa.A.Mad.Max.Saga.2024.WEB-DL.1080p_от_JNS82.mkv7.80 GB

Похожие раздачи по запросу - Фуриоса
2024-07-15 magnet Фуриоса: Хроники Безумного Макса / Фуріоза: Шалений Макс. Сага / Furiosa: A Mad Max Saga (2024) WEB-DL-HEVC 2160p | 4K | SDR | D | UKR 26.45 GB ↑ 0 ↓ 2
2024-07-06 magnet Фуриоса: Хроники Безумного Макса / Furiosa: A Mad Max Saga (2024) UHD WEB-DL 2160p | 4K | HDR | Dolby Vision Profile 8 | D, P, A 31.04 GB ↑ 3 ↓ 18
2024-07-03 magnet Фуриоса: Хроники Безумного Макса / Furiosa: A Mad Max Saga (2024) WEB-DLRip-AVC | КПК | D, P | Red Head Sound, HDrezka Studio 805.80 MB ↑ 0 ↓ 1
2024-07-03 magnet Фуриоса: Хроники Безумного Макса / Furiosa: A Mad Max Saga [2024, фантастика, боевик, WEB-DLRip-AVC] Dub 2.18 GB ↑ 0 ↓ 2
2024-07-01 magnet Фуриоса: Хроники Безумного Макса / Furiosa: A Mad Max Saga (2024) WEB-DLRip 1080p | D, P, A | Movie Dubbing, RHS, LostFilm, HDrezka, Jaskier, TVShows, Яроцкий 22.53 GB ↑ 1 ↓ 7
2024-06-30 magnet Фуриоса: Хроники Безумного Макса / Furiosa: A Mad Max Saga (2024) WEB-DLRip от DoMiNo & селезень | D | Red Head Sound 1.47 GB ↑ 1 ↓ 2
2024-06-30 magnet Фуриоса: Хроники Безумного Макса / Furiosa: A Mad Max Saga (2024) UHD WEB-DL HEVC 2160p | 4K | Dolby Vision TV | D | Movie Dubbing, Red Head Sound 27.00 GB ↑ 0 ↓ 2

Комментарии


Зарегистрируйтесь чтобы добавить комментарий
Торрент клиент
byTorrent - программа для загрузки торрент-файлов.

Скачать byTorrent.exe (1,5 МБ)

Скачать byTorrent.zip (0,6 МБ)

Поддержи torrent.by
российских рублей
(300 российских рублей это 4$)

Обратная связь rss

End game ©