↑↓torrent.by
Поиск
Логин:  Регистрация
Пароль:

Варшава'21 [01-07 из 12] (2024) WEBRip-HEVC 2160p | 4K | SDR

download Скачать торрент-файл   magnet Магнитная ссылка Размер: 25.48 GB Добавлен: 2024-06-25 05:00
Пиры будут получены из сети DHT
Последний сидер был замечен 2024-06-25 05:00
Информация о фильме Оригинальное название: Варшава'21 / Рашн Гейт Год выпуска: 2024 Жанр: Детектив Выпущено: Россия, Медведь, Okko Studios Режиссер: Феликс Герчиков В ролях: Дмитрий Миллер, Дмитрий Куличков, Валерия Шкирандо, Константин Крюков, Сергей Юшкевич, Андрей Ильин, Юрий Батурин, Николай Козак, Анатолий Котенёв, Юрий Беляев, Сергей Гурьев О фильме: В ходе предвыборной гонки за кресло президента Польши цинично убивают знаменитого журналиста Козельского. Польские телеканалы моментально подхватывают версию о вмешательстве России во внутренние дела страны, с целью поддержки силезских сепаратистов и дестабилизации обстановки. В качестве доказательства по ТВ крутят аудиозапись разговора российского посла Конобеева и одного из кандидатов в президенты Домбровского, которая, якобы, была разослана с почты убитого журналиста. Из небольшой искры раздувается геополитический пожар, способный нанести огромный ущерб интересам страны. Скомпрометированный сотрудник дипмиссии попадает в больницу с инфарктом, а на его место прибывает кризисный дипломат Вячеслав Васильев. Ему предстоит доказать, что обвинения в адрес Москвы не имеют под собой никаких оснований. Файл Формат: MKV Качество: WEBRip-HEVC 2160p | 4K | SDR Видео: MPEG-H HEVC, ~ 11.7 Мбит/с, 3840x2160 Аудио: E-AC3, 6 ch, 384 Кбит/с Продолжительность: ~ 00:46:00 Язык: Русский Субтитры: нет
[+] MediaInfo: General Unique ID : 168236803221697909895983683389184242565 (0x7E913ACE186741C43914C190BD837385) Complete name : F:TorrentsВаршава21.S01.2160p.WEB-DL.x265Варшава21.S01E01.2160p.WEB-DL.x265.mkv Format : Matroska Format version : Version 4 File size : 3.89 GiB Duration : 46 min 3 s Overall bit rate : 12.1 Mb/s Frame rate : 25.000 FPS Encoded date : 2024-06-09 22:56:43 UTC Writing application : mkvmerge v82.0 ('I'm The President') 64-bit Writing library : libebml v1.4.5 + libmatroska v1.7.1 Video ID : 1 Format : HEVC Format/Info : High Efficiency Video Coding Format profile : Main@L5@Main Codec ID : V_MPEGH/ISO/HEVC Duration : 46 min 3 s Bit rate : 11.7 Mb/s Width : 3 840 pixels Height : 2 160 pixels Display aspect ratio : 16:9 Frame rate mode : Constant Frame rate : 25.000 FPS Color space : YUV Chroma subsampling : 4:2:0 Bit depth : 8 bits Bits/(Pixel*Frame) : 0.056 Stream size : 3.76 GiB (97%) Writing library : x265 3.5+1-f0c1022b6: 8bit+10bit+12bit Encoding settings : cpuid=1111039 / frame-threads=3 / wpp / no-pmode / no-pme / no-psnr / no-ssim / log-level=2 / input-csp=1 / input-res=3840x2160 / interlace=0 / total-frames=0 / level-idc=0 / high-tier=1 / uhd-bd=0 / ref=4 / no-allow-non-conformance / repeat-headers / annexb / no-aud / no-hrd / info / hash=0 / no-temporal-layers / no-open-gop / min-keyint=50 / keyint=50 / gop-lookahead=0 / bframes=3 / b-adapt=0 / b-pyramid / bframe-bias=0 / rc-lookahead=25 / lookahead-slices=4 / scenecut=0 / hist-scenecut=0 / radl=0 / no-splice / no-intra-refresh / ctu=64 / min-cu-size=8 / rect / no-amp / max-tu-size=32 / tu-inter-depth=1 / tu-intra-depth=1 / limit-tu=0 / rdoq-level=2 / dynamic-rd=0.00 / no-ssim-rd / signhide / no-tskip / nr-intra=0 / nr-inter=0 / no-constrained-intra / strong-intra-smoothing / max-merge=3 / limit-refs=3 / limit-modes / me=2 / subme=3 / merange=57 / temporal-mvp / no-frame-dup / no-hme / weightp / no-weightb / no-analyze-src-pics / deblock=0:0 / sao / no-sao-non-deblock / rd=3 / selective-sao=4 / no-early-skip / rskip / no-fast-intra / no-tskip-fast / no-cu-lossless / no-b-intra / no-splitrd-skip / rdpenalty=0 / psy-rd=2.00 / psy-rdoq=0.00 / no-rd-refine / no-lossless / cbqpoffs=0 / crqpoffs=0 / rc=abr / bitrate=12000 / qcomp=0.80 / qpstep=4 / stats-write=0 / stats-read=2 / cplxblur=20.0 / qblur=0.5 / vbv-maxrate=18000 / vbv-bufsize=24000 / vbv-init=0.8 / min-vbv-fullness=50.0 / max-vbv-fullness=80.0 / ipratio=1.40 / pbratio=1.30 / aq-mode=2 / aq-strength=1.00 / cutree / zone-count=0 / no-strict-cbr / qg-size=32 / no-rc-grain / qpmax=69 / qpmin=1 / no-const-vbv / sar=0 / overscan=0 / videoformat=5 / range=0 / colorprim=2 / transfer=2 / colormatrix=2 / chromaloc=0 / display-window=0 / cll=0,0 / min-luma=0 / max-luma=255 / log2-max-poc-lsb=8 / vui-timing-info / vui-hrd-info / slices=1 / no-opt-qp-pps / no-opt-ref-list-length-pps / no-multi-pass-opt-rps / scenecut-bias=0.05 / hist-threshold=0.03 / no-opt-cu-delta-qp / no-aq-motion / no-hdr10 / no-hdr10-opt / no-dhdr10-opt / no-idr-recovery-sei / analysis-reuse-level=0 / analysis-save-reuse-level=0 / analysis-load-reuse-level=0 / scale-factor=0 / refine-intra=0 / refine-inter=0 / refine-mv=1 / refine-ctu-distortion=0 / no-limit-sao / ctu-info=0 / no-lowpass-dct / refine-analysis-type=0 / copy-pic=1 / max-ausize-factor=1.0 / no-dynamic-refine / no-single-sei / no-hevc-aq / no-svt / no-field / qp-adaptation-range=1.00 / scenecut-aware-qp=0conformance-window-offsets / right=0 / bottom=0 / decoder-max-rate=0 / no-vbv-live-multi-pass Language : English Default : Yes Forced : No Color range : Limited Audio ID : 2 Format : E-AC-3 Format/Info : Enhanced AC-3 Commercial name : Dolby Digital Plus Codec ID : A_EAC3 Duration : 46 min 3 s Bit rate mode : Constant Bit rate : 384 kb/s Channel(s) : 6 channels Channel layout : L R C LFE Ls Rs Sampling rate : 48.0 kHz Frame rate : 31.250 FPS (1536 SPF) Bit depth : 32 bits Compression mode : Lossy Stream size : 127 MiB (3%) Language : Russian Service kind : Complete Main Default : Yes Forced : No
[+] Скриншоты

Всего файлов в раздаче: 7 
[NOOBDL]Варшава21.S01E01.2160p.WEB-DL.x265.mkv3.89 GB
[NOOBDL]Варшава21.S01E02.2160p.WEB-DL.x265.mkv3.75 GB
[NOOBDL]Варшава21.S01E03.2160p.WEB-DL.x265.mkv3.89 GB
[NOOBDL]Варшава21.S01E04.2160p.WEB-DL.x265.mkv3.89 GB
[NOOBDL]Варшава21.S01E05.2160p.WEB-DL.x265.mkv4.04 GB
[NOOBDL]Варшава21.S01E06.2160p.WEB-DL.x265.mkv3.76 GB
[NOOBDL]Варшава21.S01E07.2160p.WEB-DL.x265.mkv2.27 GB

Похожие раздачи по запросу - Варшава'21
Вчера magnet Oxygen Not Included Bundle [v U52-622509-SC + DLC's] (2019) PC | RePack от FitGirl 984.25 MB ↑ 0 ↓ 0
Вчера magnet Чип и Дейл спешат на помощь / Chip 'n Dale: Rescue Rangers [S01-03] (1989-1990) BDRip 720p | D 33.45 GB ↑ 0 ↓ 0
Вчера magnet Outsiders Blues Band - Riff 'N Blues (2024) MP3 90.76 MB ↑ 0 ↓ 0
2024-07-20 magnet No Man's Sky [v 5.00 + DLC] (2016) PC | RePack от FitGirl 11.48 GB ↑ 0 ↓ 0
2024-07-20 magnet Королевство Сатурна. Эпическая миссия Кассини / Kingdom of Saturn. Cassini's epic Quest (2017) HDTV 1080i | P2 2.67 GB ↑ 0 ↓ 0
2024-07-20 magnet Новая Луна Аполлона / Apollo's. New Moon (2019) HDTV 1080i | P2 2.56 GB ↑ 0 ↓ 0
2024-07-20 magnet Материнский инстинкт / Mothers' Instinct (2024) BDRemux 1080p | D 27.52 GB ↑ 0 ↓ 2

Комментарии


Зарегистрируйтесь чтобы добавить комментарий
Торрент клиент
byTorrent - программа для загрузки торрент-файлов.

Скачать byTorrent.exe (1,5 МБ)

Скачать byTorrent.zip (0,6 МБ)

Поддержи torrent.by
российских рублей
(300 российских рублей это 4$)

Обратная связь rss

End game ©