↑↓torrent.by
Поиск
Логин:  Регистрация
Пароль:

Инцидент в Синдзюку / Xin Su shi jian / San suk si gin / Shinjuku Incident (2009) BDRip 1080p от MegaPeer | P

download Скачать торрент-файл   magnet Магнитная ссылка Размер: 14.56 GB Добавлен: 2024-06-25 05:00
Пиры будут получены из сети DHT
Последний сидер был замечен 2024-06-25 14:39
«They destroyed his life... Now he'll destroy them all» Информация Название: Инцидент в Синдзюку Оригинальное название: Xin Su shi jian / San suk si gin / Shinjuku Incident Год выхода: 2009 Жанр: Боевик, драма, криминал Режиссер: Дерек И В ролях: Джеки Чан, Наото Такэнака, Дэниэл У, Сюй Цзинлэй, Масая Като, Фань Бинбин, Тору Минэгиси, Кэнъя Савада, Джек Као, Пол Чунь Описание: В 1990-е годы из-за экономического кризиса в КНР тысячи китайцев перебрались в Японию в надежде найти работу. Один из таких нелегальных мигрантов, Тиету по прозвищу Стальная Голова, покинул родную страну, чтобы найти свою девушку Сю Сю, которая уехала на заработки, но так и не вернулась. Не имея денег и документов, Тиету примыкает к банде таких же нелегальных иммигрантов, как и он сам. А вскоре мужчина находит и свою возлюбленную, но теперь она — жена влиятельного якудзы, который не желает расставаться с ней. Страна: Гонконг Студия: Emperor Dragon Movies Продолжительность: 01:59:12 Перевод: Профессиональный (многоголосый, закадровый) | Официальный | Файл Качество: BDRip 1080p Исходник: Shinjuku.Incident.2009.1080p.BluRay.Remux.AVC.TrueHD.5.1-HDT Формат: MKV Кодек: MPEG-4 AVC Видео: 1920x816 (2.35:1), 24 fps, MPEG-4 AVC ~ 16.3 Mbps avg, 0.434 bit/pixel Аудио: AC3, 48 kHz, 2 ch, ~256.00 kbps avg | русский | MVO | Аудио: Е-AC3, 48 kHz, 2 ch, ~256.00 kbps avg | русский | MVO | Аудио: AC3, 48 kHz, 6 ch, ~640.00 kbps avg | китайский | Субтитры: Русские (Full), Английские (Full)
[+] Инфо-файлОбщее Уникальный идентификатор : 210095424527764007468871756818309736408 (0x9E0EE82C69883A10B441BD6A4B1067D8) Полное имя : Shinjuku.Incident.2009.1080p.BluRay.DD.2.0.x264-MegaPeer.mkv Формат : Matroska Версия формата : Version 4 Размер файла : 14,6 Гбайт Продолжительность : 1 ч. 59 мин. Общий битрейт : 17,5 Мбит/сек Частота кадров : 24,000 кадра/сек Название фильма : Инцидент в Синдзюку / Xin Su shi jian / San suk si gin / Shinjuku Incident (2009) от stillet@MegaPeer Дата кодирования : 2024-06-24 12:01:53 UTC Программа кодирования : mkvmerge v15.0.0 ('Duel with the Devil') 64-bit Библиотека кодирования : libebml v1.3.5 + libmatroska v1.4.5 Обложка : Yes Attachments : cover.jpg Видео Идентификатор : 1 Формат : AVC Формат/Информация : Advanced Video Codec Профиль формата : High@L4.1 Настройки формата : CABAC / 5 Ref Frames Параметр CABAC формата : Да Параметр RefFrames формата : 5 кадров Идентификатор кодека : V_MPEG4/ISO/AVC Продолжительность : 1 ч. 59 мин. Битрейт : 16,3 Мбит/сек Ширина : 1 920 пикселей Высота : 816 пикселей Соотношение сторон дисплея : 2,35:1 Режим частоты кадров : Постоянный Частота кадров : 24,000 кадра/сек Цветовое пространство : YUV Цветовая субдискретизация : 4:2:0 Битовая глубина : 8 бит Тип развёртки : Прогрессивная Бит/(Пиксели*Кадры) : 0.434 Размер потока : 13,6 Гбайт (93%) Библиотека кодирования : x264 core 164 r3156+57M stillet t_mod_New Параметры библиотеки кодирования : cabac=1 / ref=5 / deblock=1:-3:-3 / analyse=0x3:0x113 / me=umh / subme=10 / psy=1 / fade_compensate=0.00 / psy_rd=1.03:0.01 / mixed_ref=1 / me_range=32 / chroma_me=1 / trellis=2 / 8x8dct=1 / cqm=0 / deadzone=21,11 / fast_pskip=0 / chroma_qp_offset=-3 / threads=12 / lookahead_threads=3 / sliced_threads=0 / nr=0 / decimate=0 / interlaced=0 / bluray_compat=0 / constrained_intra=0 / fgo=0 / bframes=10 / b_pyramid=2 / b_adapt=2 / b_bias=0 / direct=3 / weightb=1 / open_gop=0 / weightp=2 / keyint=240 / keyint_min=24 / scenecut=40 / intra_refresh=0 / rc_lookahead=40 / rc=2pass / mbtree=0 / bitrate=16336 / ratetol=1.0 / qcomp=0.60 / qpmin=0:0:0 / qpmax=69:69:69 / qpstep=4 / cplxblur=20.0 / qblur=0.5 / vbv_maxrate=50000 / vbv_bufsize=62500 / nal_hrd=none / filler=0 / ip_ratio=1.40 / pb_ratio=1.30 / aq=1:1.10 / aq-sensitivity=10.00 / aq-factor=1.00:1.00:1.00 / aq2=0 / aq3=0 Язык : Английский По умолчанию : Да Принудительно : Нет Аудио #1 Идентификатор : 2 Формат : AC-3 Формат/Информация : Audio Coding 3 Коммерческое название : Dolby Digital Идентификатор кодека : A_AC3 Продолжительность : 1 ч. 59 мин. Вид битрейта : Постоянный Битрейт : 256 Кбит/сек Канал(-ы) : 2 канала Расположение каналов : L R Частота дискретизации : 48,0 КГц Частота кадров : 31,250 кадров/сек (1536 SPF) Метод сжатия : С потерями Размер потока : 218 Мбайт (1%) Заголовок : MVO | Официальный Язык : Русский Вид сервиса : Complete Main По умолчанию : Да Принудительно : Да Аудио #2 Идентификатор : 3 Формат : E-AC-3 Формат/Информация : Enhanced AC-3 Коммерческое название : Dolby Digital Plus Идентификатор кодека : A_EAC3 Продолжительность : 1 ч. 59 мин. Вид битрейта : Постоянный Битрейт : 256 Кбит/сек Канал(-ы) : 2 канала Расположение каналов : L R Частота дискретизации : 48,0 КГц Частота кадров : 31,250 кадров/сек (1536 SPF) Метод сжатия : С потерями Размер потока : 218 Мбайт (1%) Заголовок : MVO | Официальный Язык : Русский Вид сервиса : Complete Main По умолчанию : Нет Принудительно : Нет Аудио #3 Идентификатор : 4 Формат : AC-3 Формат/Информация : Audio Coding 3 Коммерческое название : Dolby Digital Идентификатор кодека : A_AC3 Продолжительность : 1 ч. 59 мин. Вид битрейта : Постоянный Битрейт : 640 Кбит/сек Канал(-ы) : 6 каналов Расположение каналов : L R C LFE Ls Rs Частота дискретизации : 48,0 КГц Частота кадров : 31,250 кадров/сек (1536 SPF) Метод сжатия : С потерями Размер потока : 546 Мбайт (4%) Язык : Китайский Вид сервиса : Complete Main По умолчанию : Нет Принудительно : Нет AC3_metadata cmixlev : -3.0 dB surmixlev : -3 dB Текст #1 Идентификатор : 5 Формат : UTF-8 Идентификатор кодека : S_TEXT/UTF8 Идентификатор кодека/Информация : UTF-8 Plain Text Продолжительность : 1 ч. 54 мин. Битрейт : 89 бит/сек Частота кадров : 0,230 кадр/сек Число элементов : 1586 Размер потока : 75,5 КиБ (0%) Заголовок : Full Язык : Русский По умолчанию : Нет Принудительно : Нет Текст #2 Идентификатор : 6 Формат : UTF-8 Идентификатор кодека : S_TEXT/UTF8 Идентификатор кодека/Информация : UTF-8 Plain Text Продолжительность : 1 ч. 54 мин. Битрейт : 45 бит/сек Частота кадров : 0,233 кадр/сек Число элементов : 1597 Размер потока : 37,9 КиБ (0%) Заголовок : Full Язык : Английский По умолчанию : Нет Принудительно : Нет Меню 00:00:00.000 : Chapter 01 00:10:44.666 : Chapter 02 00:20:52.000 : Chapter 03 00:30:45.750 : Chapter 04 00:39:10.291 : Chapter 05 00:48:19.875 : Chapter 06 01:00:31.083 : Chapter 07 01:10:28.041 : Chapter 08 01:20:59.500 : Chapter 09 01:30:27.750 : Chapter 10 01:37:48.416 : Chapter 11 01:50:22.083 : Chapter 12
Релиз:

Всего файлов в раздаче: 1 
Shinjuku.Incident.2009.1080p.BluRay.DD.2.0.x264-MegaPeer.mkv14.56 GB

Похожие раздачи по запросу - Инцидент
2024-06-25 magnet Инцидент в Синдзюку / Xin Su shi jian / San suk si gin / Shinjuku Incident (2009) BDRip от MegaPeer | P 1.46 GB ↑ 0 ↓ 0
2024-06-08 magnet Инцидент на границе / Border Incident (1949) BDRip 720p | L1 7.12 GB ↑ 0 ↓ 0
2024-06-07 magnet Инцидент на границе / Border Incident (1949) BDRip-AVC | L1 2.00 GB ↑ 2 ↓ 0

Комментарии


Зарегистрируйтесь чтобы добавить комментарий
Торрент клиент
byTorrent - программа для загрузки торрент-файлов.

Скачать byTorrent.exe (1,5 МБ)

Скачать byTorrent.zip (0,6 МБ)

Поддержи torrent.by
российских рублей
(300 российских рублей это 4$)

Обратная связь rss

End game ©