↑↓torrent.by
Поиск
Логин:  Регистрация
Пароль:

Не буди во мне киллера / Les complices / Killing Blues (2023) WEB-DLRip 720p от DoMiNo & селезень | D

download Скачать торрент-файл   magnet Магнитная ссылка Размер: 2.42 GB Добавлен: 2024-06-25 05:00
Пиры будут получены из сети DHT
Последний сидер был замечен 2024-06-30 21:14
Информация о фильме Название: Не буди во мне киллера Оригинальное название: Les complices / Killing Blues Год выхода: 2023 Жанр: Комедия Режиссер: Сесилия Руа В ролях: Франсуа Дамиенс, Уилльям Лебхил, Лаура Фелпин, Ванесса Паради, Брюно Подалидес, Алисия Хава, Женти Каме О фильме: К пятидесяти годам киллер Макс внезапно стал бояться вида крови. Этот страх изрядно портит и его профессиональную репутацию, и его уверенность в себе. Герой решает начать новую жизнь и переезжает в новый дом, где знакомится с молодой парой соседей Каримом и Стефани. Новая дружба возвращает Максу уверенность в себе. Но его темное прошлое внезапно напоминает о себе. Страна: Франция, Бельгия Студия: Artémis Productions, BE TV, Canal+ Продолжительность: 01:37:29 Перевод: Дублированный | Pride Production Файл Формат: Matroska Качество: WEB-DLRip 720p Видео: 1280x534 at 24.000 fps, x264@L4.1, ~2717 kbps Аудио 1: AC3, 6 ch, ~384 kbps - | Русский | Аудио 2: AC3, 6 ch, ~448 kbps - | Французский | Субтитры: Отсутствуют ***Рип от: -=DoMiNo=-
[+] M/Ix264 : frame I:1027 Avg QP:15.27 size: 99105 x264 : frame P:33102 Avg QP:16.78 size: 28762 x264 : frame B:106256 Avg QP:18.69 size: 8781 General Unique ID : 244542293874604273876996930236030836565 (0xB7F921F4F8CDABB3D1E145A6E746DF55) Complete name : G:Les.Complices.2023.WEB-DLRip.720p.x264.seleZen.mkv Format : Matroska Format version : Version 4 File size : 2.42 GiB Duration : 1 h 37 min Overall bit rate : 3 551 kb/s Frame rate : 24.000 FPS Movie name : Les.Complices.2023.WEB-DLRip.720p.x264.seleZen Encoded date : 2023-08-12 07:19:55 UTC Writing application : mkvmerge v78.0 ('Running') 64-bit Writing library : libebml v1.4.4 + libmatroska v1.7.1 Cover : Yes Attachments : cover.jpg / small_cover.jpg Video ID : 1 Format : AVC Format/Info : Advanced Video Codec Format profile : High@L4.1 Format settings : CABAC / 5 Ref Frames Format settings, CABAC : Yes Format settings, Reference : 5 frames Codec ID : V_MPEG4/ISO/AVC Duration : 1 h 37 min Bit rate : 2 717 kb/s Width : 1 280 pixels Height : 534 pixels Display aspect ratio : 2.40:1 Frame rate mode : Constant Frame rate : 24.000 FPS Color space : YUV Chroma subsampling : 4:2:0 Bit depth : 8 bits Scan type : Progressive Bits/(Pixel*Frame) : 0.166 Stream size : 1.85 GiB (77%) Title : -=DoMiNo=- Writing library : x264 core 164 r3107+58M ae98796 t_mod_New | by -=DoMiNo=- | X86_64] Encoding settings : cabac=1 / ref=5 / deblock=1:-2:-2 / analyse=0x3:0x133 / me=umh / subme=10 / psy=1 / fade_compensate=0.00 / psy_rd=1.03:0.05 / mixed_ref=1 / me_range=32 / chroma_me=1 / trellis=2 / 8x8dct=1 / cqm=0 / deadzone=21,11 / fast_pskip=0 / chroma_qp_offset=-3 / threads=17 / lookahead_threads=4 / sliced_threads=0 / nr=0 / decimate=1 / interlaced=0 / bluray_compat=0 / constrained_intra=0 / fgo=0 / bframes=12 / b_pyramid=2 / b_adapt=2 / b_bias=0 / direct=3 / weightb=1 / open_gop=0 / weightp=2 / keyint=240 / keyint_min=24 / scenecut=40 / intra_refresh=0 / rc_lookahead=60 / rc=crf / mbtree=0 / crf=18.0000 / qcomp=0.70 / qpmin=0:0:0 / qpmax=69:69:69 / qpstep=4 / vbv_maxrate=50000 / vbv_bufsize=62500 / crf_max=0.0 / nal_hrd=none / filler=0 / ip_ratio=1.35 / pb_ratio=1.25 / aq=1:0.90 / aq-sensitivity=10.00 / aq-factor=1.00:1.00:1.00 / aq2=0 / aq3=0 Language : English Default : Yes Forced : No Color range : Limited Color primaries : BT.709 Transfer characteristics : BT.709 Matrix coefficients : BT.709 Audio #1 ID : 2 Format : AC-3 Format/Info : Audio Coding 3 Commercial name : Dolby Digital Codec ID : A_AC3 Duration : 1 h 37 min Bit rate mode : Constant Bit rate : 384 kb/s Channel(s) : 6 channels Channel layout : L R C LFE Ls Rs Sampling rate : 48.0 kHz Frame rate : 31.250 FPS (1536 SPF) Compression mode : Lossy Stream size : 268 MiB (11%) Title : Dub Language : Russian Service kind : Complete Main Default : Yes Forced : Yes Audio #2 ID : 3 Format : AC-3 Format/Info : Audio Coding 3 Commercial name : Dolby Digital Codec ID : A_AC3 Duration : 1 h 37 min Bit rate mode : Constant Bit rate : 448 kb/s Channel(s) : 6 channels Channel layout : L R C LFE Ls Rs Sampling rate : 48.0 kHz Frame rate : 31.250 FPS (1536 SPF) Compression mode : Lossy Stream size : 312 MiB (13%) Title : Original Language : French Service kind : Complete Main Default : No Forced : No Menu 00:00:00.000 : en:Глава 01 00:05:50.000 : en:Глава 02 00:11:40.000 : en:Глава 03 00:17:30.000 : en:Глава 04 00:23:20.000 : en:Глава 05 00:29:10.000 : en:Глава 06 00:35:00.000 : en:Глава 07 00:40:50.000 : en:Глава 08 00:46:40.000 : en:Глава 09 00:52:30.000 : en:Глава 10 00:58:20.000 : en:Глава 11 01:04:10.000 : en:Глава 12 01:10:00.000 : en:Глава 13 01:15:50.000 : en:Глава 14 01:21:40.000 : en:Глава 15 01:27:30.000 : en:Глава 16 01:33:20.000 : en:Глава 17
Релиз: Присоединяйся к: Кликай на баннеры.

Всего файлов в раздаче: 1 
Les.Complices.2023.WEB-DLRip.720p.x264.seleZen.mkv2.42 GB

Комментарии


Зарегистрируйтесь чтобы добавить комментарий
Торрент клиент
byTorrent - программа для загрузки торрент-файлов.

Скачать byTorrent.exe (1,5 МБ)

Скачать byTorrent.zip (0,6 МБ)

Поддержи torrent.by
российских рублей
(300 российских рублей это 4$)

Обратная связь rss

End game ©