↑↓torrent.by
Поиск
Логин:  Регистрация
Пароль:

OST - Céline Dion - I Am: Celine Dion [24-bit Hi-Res, Bande Originale Du Film] (2024) FLAC

download Скачать торрент-файл   magnet Магнитная ссылка Размер: 901.18 MB Добавлен: 2024-06-25 05:00
Пиры будут получены из сети DHT
Последний сидер был замечен 2024-07-04 21:42
Название: I Am: Celine Dion (Bande Originale Du Film) Исполнитель: Céline Dion, Redi Hasa, Ekland Hasa Год: 2024 Жанр: Rock, Pop, Ballad, Soundtrack, Score, Pop-Rock Издатель (лейбл): Sony Music Canada Продолжительность: 01:16:26 Формат/Кодек: FLAC Тип рипа: Tracks Битрейт аудио: Lossless Разрядность: 24 Bit/48 kHz
[+] Трек-лист 01. Main Theme - Artist Always (00:04:04) 02. The Power Of Love (00:05:44) 03. Pour Que Tu M'aimes Encore (00:04:17) 04. A New Day Has Come (00:03:59) 05. The Episode (00:04:00) 06. J'irai Où Tu Iras (00:03:26) 07. Because You Loved Me (00:04:36) 08. The Diagnosis (00:01:15) 09. River Deep, Mountain High (00:04:12) 10. Mama Dion (00:03:28) 11. Zora Sourit (00:03:56) 12. My Heart Will Go On (00:04:43) 13. All By Myself (00:05:11) 14. The Awakening (00:03:20) 15. Ashes (00:03:19) 16. Swallows (00:02:50) 17. Love Again (00:03:32) 18. Je Crois Toi (00:05:07) 19. I'm Alive (00:03:30) 20. Talea (00:01:57)
[+] DRM foobar2000 1.5.5 / Замер динамического диапазона (DR) 1.1.1 ------------------------------------------------------------------------------- Анализ: Céline Dion / Je Suis : Céline Dion (Bande Originale Du Film) (1-11) Ekland Hasa / Je Suis : Céline Dion (Bande Originale Du Film) (12) Pascal Jaupart / Je Suis : Céline Dion (Bande Originale Du Film) (13-14) Redi Hasa / Je Suis : Céline Dion (Bande Originale Du Film) (15-20) -------------------------------------------------------------------------------- DR Пики RMS Продолжительность трека -------------------------------------------------------------------------------- DR6 -0.52 дБ -9.10 дБ 5:44 02-The Power Of Love DR8 -0.52 дБ -11.42 дБ 4:17 03-Pour Que Tu M'aimes Encore DR7 -0.52 дБ -9.23 дБ 3:59 04-A New Day Has Come DR9 -0.52 дБ -11.87 дБ 3:26 06-J'irai Où Tu Iras DR6 -0.52 дБ -9.98 дБ 4:36 07-Because You Loved Me DR5 -0.52 дБ -7.88 дБ 4:12 09-River Deep, Mountain High DR6 -0.52 дБ -10.58 дБ 4:43 12-My Heart Will Go On DR5 -0.52 дБ -10.35 дБ 5:11 13-All By Myself DR5 -0.52 дБ -9.47 дБ 3:19 15-Ashes DR8 -0.61 дБ -11.95 дБ 3:32 17-Love Again DR7 -0.52 дБ -9.16 дБ 3:30 19-I'm Alive DR15 -2.31 дБ -22.35 дБ 1:15 08-The Diagnosis DR6 -0.54 дБ -9.58 дБ 3:56 11-Zora Sourit DR9 -0.52 дБ -13.56 дБ 5:07 18-Je Crois Toi DR8 -0.52 дБ -11.16 дБ 4:04 01-Main Theme - Artist Always DR8 -0.52 дБ -12.55 дБ 4:00 05-The Episode DR7 -0.52 дБ -9.56 дБ 3:28 10-Mama Dion DR8 -3.30 дБ -15.88 дБ 3:20 14-The Awakening DR8 -0.52 дБ -10.47 дБ 2:50 16-Swallows DR9 -1.00 дБ -12.84 дБ 1:57 20-Talea -------------------------------------------------------------------------------- Количество треков: 20 Реальные значения DR: DR8 Частота: 48000 Гц Каналов: 2 Разрядность: 24 Битрейт: 1437 кбит/с Кодек: FLAC ================================================================================
Время раздачи: 24/7 (минимум до появления первых 3-5 скачавших, на раздачи не возвращаюсь) Первое правило участника файлообмена: "Скачал сам - дай скачать другому!"

Всего файлов в раздаче: 21 
01. Main Theme - Artist Always.flac44.30 MB
02. The Power Of Love.flac71.89 MB
03. Pour Que Tu M'aimes Encore.flac52.19 MB
04. A New Day Has Come.flac53.14 MB
05. The Episode.flac42.52 MB
06. J'irai Où Tu Iras.flac43.17 MB
07. Because You Loved Me.flac57.98 MB
08. The Diagnosis.flac10.61 MB
09. River Deep, Mountain High.flac54.88 MB
10. Mama Dion.flac39.70 MB
Показать все файлы

Похожие раздачи по запросу - OST
2024-06-28 magnet OST - Иванушки International - Тур с Иванушками (2024) MP3 205.05 MB ↑ 0 ↓ 0
2024-06-10 magnet OST - Jeff Healey - Road House [The Lost Soundtrack, 24Bit, Hi-Res] (2024) FLAC 1.65 GB ↑ 0 ↓ 0
2024-05-09 magnet OST - Сто лет тому вперёд [Музыка Игоря Вдовина] (2024) FLAC 207.02 MB ↑ 0 ↓ 0
2024-04-15 magnet OST - Amy Winehouse - Back To Black: Songs From The Original Motion Picture (2024) MP3 199.85 MB ↑ 0 ↓ 0
2024-01-05 magnet OST - Бременские музыканты (2023) MP3 87.47 MB ↑ 0 ↓ 0

Комментарии


Зарегистрируйтесь чтобы добавить комментарий
Торрент клиент
byTorrent - программа для загрузки торрент-файлов.

Скачать byTorrent.exe (1,5 МБ)

Скачать byTorrent.zip (0,6 МБ)

Поддержи torrent.by
российских рублей
(300 российских рублей это 4$)

Обратная связь rss

End game ©