↑↓torrent.by
Поиск
Логин:  Регистрация
Пароль:

Дрозд, дрозд, ежевика / Shashvi shashvi maq'vali / Blackbird Blackbird Blackberry (2023) WEB-DL 1080p | L2

download Скачать торрент-файл   magnet Магнитная ссылка Размер: 7.61 GB Добавлен: 2024-06-25 11:00
Пиры будут получены из сети DHT
Последний сидер был замечен 2024-06-28 19:01
Информация о фильме Название: Дрозд, дрозд, ежевика Оригинальное название: Shashvi shashvi maq'vali / Blackbird Blackbird Blackberry Год выхода: 2023 Жанр: драма, мелодрама, экранизация Режиссер: Елена Навериани В ролях: Эка Чавлеишвили, Темур Чичинадзе, Лия Абуладзе, Тео Бабухадия, Мариам Дидия, Мариам Геденадзе, Сопо Григолашвили, Джони Джанашия, Тэнго Джавахадзе, Рези Каросанидзе О фильме: Этеро, 48-летняя женщина, живущая в маленькой деревне в Грузии, никогда не хотела иметь мужа. Она дорожит своей свободой не меньше, чем пирогами. Но ее выбор жить в одиночестве вызывает много пересудов среди односельчан. Неожиданно она обнаруживает, что страстно влюблена в мужчину, и перед ней встает решение: продолжать отношения или жить независимой жизнью. Этеро должна справиться со своими чувствами и решить, как найти свой собственный путь к счастью. Страна: Швейцария, Грузия Студия: Alva Film, Takes Film Продолжительность: 01:51:22 Перевод: любительский (двухголосый, закадровый) Yuka_chan & datynet Файл Кодек: H.264 Качество: WEB-DL 1080p | L2 Видео: 1920x1040 (2.40:1), 24.000 fps, MPEG4 Video (H264) High@L4 ~ 9 010 kbps avg Звук: Русский, грузинский (AC3, 384 Kb/s (6 ch)) Субтитры: Русские, английские, испанские, французские, португальские
[+] MediaInfoGeneral Unique ID : 302034527320733362307139043397790988766 (0xE339BBEA1570653230F3607015DDF9DE) Complete name : D:Дрозд дрозд ежевика (2023) WEB-DL 1080p DVO.mkv Format : Matroska Format version : Version 4 / Version 2 File size : 7.61 GiB Duration : 1 h 51 min Overall bit rate : 9 779 kb/s Encoded date : UTC 2024-06-24 18:07:43 Writing application : mkvmerge v82.0 ('I'm The President') 64-bit Writing library : libebml v1.4.5 + libmatroska v1.7.1 Video ID : 1 Format : AVC Format/Info : Advanced Video Codec Format profile : High@L4 Format settings : CABAC / 4 Ref Frames Format settings, CABAC : Yes Format settings, ReFrames : 4 frames Codec ID : V_MPEG4/ISO/AVC Duration : 1 h 51 min Bit rate mode : Constant Bit rate : 9 010 kb/s Nominal bit rate : 10 000 kb/s Width : 1 920 pixels Height : 1 040 pixels Display aspect ratio : 1.85:1 Frame rate mode : Constant Frame rate : 24.000 FPS Color space : YUV Chroma subsampling : 4:2:0 Bit depth : 8 bits Scan type : Progressive Bits/(Pixel*Frame) : 0.188 Stream size : 7.01 GiB (92%) Default : Yes Forced : No Color range : Limited Color primaries : BT.709 Transfer characteristics : BT.709 Matrix coefficients : BT.709 Audio #1 ID : 2 Format : AC-3 Format/Info : Audio Coding 3 Codec ID : A_AC3 Duration : 1 h 51 min Bit rate mode : Constant Bit rate : 384 kb/s Channel(s) : 6 channels Channel positions : Front: L C R, Side: L R, LFE Sampling rate : 48.0 kHz Frame rate : 31.250 FPS (1536 SPF) Bit depth : 16 bits Compression mode : Lossy Stream size : 306 MiB (4%) Title : DVO (Yuka_chan & datynet) Language : Russian Service kind : Complete Main Default : Yes Forced : No Audio #2 ID : 3 Format : AC-3 Format/Info : Audio Coding 3 Codec ID : A_AC3 Duration : 1 h 51 min Bit rate mode : Constant Bit rate : 384 kb/s Channel(s) : 6 channels Channel positions : Front: L C R, Side: L R, LFE Sampling rate : 48.0 kHz Frame rate : 31.250 FPS (1536 SPF) Bit depth : 16 bits Compression mode : Lossy Delay relative to video : 14 ms Stream size : 306 MiB (4%) Title : Original Language : Georgian Service kind : Complete Main Default : No Forced : No Text #1 ID : 4 Format : UTF-8 Codec ID : S_TEXT/UTF8 Codec ID/Info : UTF-8 Plain Text Duration : 1 h 41 min Bit rate : 34 b/s Count of elements : 631 Stream size : 25.5 KiB (0%) Title : Dark Alice Language : Russian Default : No Forced : No Text #2 ID : 5 Format : UTF-8 Codec ID : S_TEXT/UTF8 Codec ID/Info : UTF-8 Plain Text Duration : 1 h 37 min Bit rate : 22 b/s Count of elements : 630 Stream size : 16.0 KiB (0%) Language : English Default : No Forced : No Text #3 ID : 6 Format : UTF-8 Codec ID : S_TEXT/UTF8 Codec ID/Info : UTF-8 Plain Text Duration : 1 h 49 min Bit rate : 62 b/s Count of elements : 1923 Stream size : 49.8 KiB (0%) Title : SDH Language : English Default : No Forced : No Text #4 ID : 7 Format : UTF-8 Codec ID : S_TEXT/UTF8 Codec ID/Info : UTF-8 Plain Text Duration : 1 h 37 min Bit rate : 26 b/s Count of elements : 627 Stream size : 19.0 KiB (0%) Language : French Default : No Forced : No Text #5 ID : 8 Format : UTF-8 Codec ID : S_TEXT/UTF8 Codec ID/Info : UTF-8 Plain Text Duration : 1 h 37 min Bit rate : 22 b/s Count of elements : 628 Stream size : 16.5 KiB (0%) Language : Italian Default : No Forced : No Text #6 ID : 9 Format : UTF-8 Codec ID : S_TEXT/UTF8 Codec ID/Info : UTF-8 Plain Text Duration : 1 h 45 min Bit rate : 20 b/s Count of elements : 630 Stream size : 16.3 KiB (0%) Title : Brazilian Language : Portuguese Default : No Forced : No Text #7 ID : 10 Format : UTF-8 Codec ID : S_TEXT/UTF8 Codec ID/Info : UTF-8 Plain Text Duration : 1 h 41 min Bit rate : 23 b/s Count of elements : 631 Stream size : 17.3 KiB (0%) Title : Latin American Language : Spanish Default : No Forced : No Text #8 ID : 11 Format : UTF-8 Codec ID : S_TEXT/UTF8 Codec ID/Info : UTF-8 Plain Text Duration : 1 h 37 min Bit rate : 24 b/s Count of elements : 619 Stream size : 17.7 KiB (0%) Language : Turkish Default : No Forced : No
[+] Скриншоты

Всего файлов в раздаче: 1 
Дрозд дрозд ежевика (2023) WEB-DL 1080p DVO.mkv7.61 GB

Комментарии


Зарегистрируйтесь чтобы добавить комментарий
Торрент клиент
byTorrent - программа для загрузки торрент-файлов.

Скачать byTorrent.exe (1,5 МБ)

Скачать byTorrent.zip (0,6 МБ)

Поддержи torrent.by
российских рублей
(300 российских рублей это 4$)

Обратная связь rss

End game ©