↑↓torrent.by
Поиск
Логин:  Регистрация
Пароль:

Berliner Philharmoniker - Rachmaninoff: Symphony No. 2 [24-bit Hi-Res] (2024) FLAC

download Скачать торрент-файл   magnet Магнитная ссылка Размер: 1.04 GB Добавлен: 2024-06-25 11:00
Пиры будут получены из сети DHT
Последний сидер был замечен 2024-07-07 22:20
Название: Rachmaninoff: Symphony No. 2 Исполнитель: Berlin Philharmonic Orchestra, Kirill Petrenko Композитор: Serge Rachmaninoff Год: 2024 Жанр: Classic, Symphony-Orchestra, Symphonies Издатель (лейбл): Berliner Philharmoniker Recordings Продолжительность: 00:58:53 Формат/Кодек: FLAC Тип рипа: Tracks Битрейт аудио: Lossless Разрядность: 24 Bit/96 kHz
[+] Трек-лист 01. Symphony No. 2 In E Minor, Op. 27: I. Largo - Allegro Moderato (00:22:13) 02. Symphony No. 2 In E Minor, Op. 27: II. Allegro Molto (00:09:38) 03. Symphony No. 2 In E Minor, Op. 27: III. Adagio (00:13:35) 04. Symphony No. 2 In E Minor, Op. 27: IV. Allegro Vivace (00:13:27)
[+] DRM foobar2000 1.5.5 / Замер динамического диапазона (DR) 1.1.1 ------------------------------------------------------------------------------ Анализ: Berliner Philharmoniker / Rachmaninoff: Symphony No. 2 -------------------------------------------------------------------------------- DR Пики RMS Продолжительность трека -------------------------------------------------------------------------------- DR15 -1.11 дБ -21.69 дБ 22:13 01-Symphony No. 2 In E Minor, Op. 27: I. Largo - Allegro Moderato DR14 -1.48 дБ -21.70 дБ 9:38 02-Symphony No. 2 In E Minor, Op. 27: Ii. Allegro Molto DR15 -2.93 дБ -23.89 дБ 13:35 03-Symphony No. 2 In E Minor, Op. 27: Iii. Adagio DR13 -1.11 дБ -18.93 дБ 13:27 04-Symphony No. 2 In E Minor, Op. 27: Iv. Allegro Vivace -------------------------------------------------------------------------------- Количество треков: 4 Реальные значения DR: DR14 Частота: 96000 Гц Каналов: 2 Разрядность: 24 Битрейт: 2611 кбит/с Кодек: FLAC ================================================================================
Время раздачи: 24/7 (минимум до появления первых 3-5 скачавших, на раздачи не возвращаюсь) Первое правило участника файлообмена: "Скачал сам - дай скачать другому!"

Всего файлов в раздаче: 5 
01. Symphony No. 2 in E Minor, Op. 27 I. Largo - Allegro moderato.flac398.98 MB
02. Symphony No. 2 in E Minor, Op. 27 II. Allegro molto.flac175.44 MB
03. Symphony No. 2 in E Minor, Op. 27 III. Adagio.flac239.81 MB
04. Symphony No. 2 in E Minor, Op. 27 IV. Allegro vivace.flac251.48 MB
cover.jpg98.67 kB

Комментарии


Зарегистрируйтесь чтобы добавить комментарий
Торрент клиент
byTorrent - программа для загрузки торрент-файлов.

Скачать byTorrent.exe (1,5 МБ)

Скачать byTorrent.zip (0,6 МБ)

Поддержи torrent.by
российских рублей
(300 российских рублей это 4$)

Обратная связь rss

End game ©