↑↓torrent.by
Поиск
Логин:  Регистрация
Пароль:

Сокол и Зимний Солдат / The Falcon and the Winter Soldier [S01] (2021) BDRip-HEVC 1080p от RIPS CLUB | D, P

download Скачать торрент-файл   magnet Магнитная ссылка Размер: 17.79 GB Раздают: 0 Качают: 1 Добавлен: 2024-06-25 11:00
Пиры будут получены из сети DHT
Последний сидер был замечен 2024-07-12 22:15
Название: Сокол и Зимний Солдат Оригинальное название: The Falcon and the Winter Soldier Год производства: 2021 Производство: США / Marvel Studios Inc. Жанр: фантастика, боевик, драма, приключения Режиссёр: Кари Скогланд В ролях: Энтони Маки, Себастиан Стэн, Уайатт Рассел, Эрин Келлиман, Даниэль Брюль, Эмили ВанКэмп, Дэнни Рамирес, Эдеперо Одуйе, Флоренс Касумба, Дон Чидл О фильме: Сэм Уилсон примерит костюм нового Капитана Америка и попытается справиться с миссией, возложенной на него Стивом Роджерсом. Баки, в свою очередь, готов вновь стать частью общества и поближе познакомиться со всем, что предлагает современный мир. Продолжительность: ~00:51:00 серия Перевод: дублированный, многоголосый профессиональный Качество: BDRip-HEVC 1080p Кодек: HEVC (x265) Видео: 1920x804, ~4627 Kbps, HEVC (Main10@L.4.1@High) 10 бит Звук: Аудио1: AC3, 2 ch, 320 Kbps - Русский, DUB (Flarrow Films) Аудио2: AC3, 6 ch, 640 Kbps - Русский, MVO (LostFilm) Аудио3: AC3, 6 ch, 384 Kbps - Русский, MVO (TVShows) Аудио4: AC3, 6 ch, 384 Kbps - Русский, MVO (AlexFilm) Аудио5: AC3, 6 ch, 384 Kbps - Русский, MVO (NewStudio) Аудио6: AC3, 6 ch, 448 Kbps - Украинский, MVO (Цікава Ідея) Аудио7: AC3, 6 ch, 384 Kbps - Украинский, MVO (DniproFilm) Аудио8: AC3, 6 ch, 640 Kbps - Английский Субтитры: русские (full, forced), украинские (forced), английские (SDH) Навигация по главам: Есть
[+] Лог (x265 info) + Mediainfo x265 : frame I: 313, Avg QP:17.29 kb/s: 16697.80 x265 : frame P: 13782, Avg QP:18.07 kb/s: 10655.92 x265 : frame B: 59754, Avg QP:20.88 kb/s: 3171.69 x265 : Weighted P-Frames: Y:10.2% UV:7.3% x265 : Weighted B-Frames: Y:7.0% UV:5.0% x265 : encoded 73849 frames in 40046.15s (1.84 fps), 4625.76 kb/s, Avg QP:20.34 Общее Уникальный идентификатор : 248354346265462521850276127524892844378 (0xBAD74EA6919807AA941C668C6D9A215A) Полное имя : .The.Falcon.and.The.Winter.Soldier.S01E04.The.Whole.World.Is.Watching.mkv Формат : Matroska Версия формата : Version 4 Размер файла : 2,95 Гбайт Продолжительность : 51 мин. 21 с. Общий битрейт : 8 213 Кбит/сек Частота кадров : 23,976 кадра/сек Название фильма : The.Falcon.and.The.Winter.Soldier.S01E04.The.Whole.World.Is.Watching / На глазах у всего мира Имя трека/Расположение : 1 Кодирование выполнил : OldGamer Тип содержимого : TV Show Описание : Чтобы продолжить работать вместе с Земо, Барнс должен получить разрешение у Айо. Согласится ли вакандийская воительница дать свободу бывшему врагу? Выследив Моргенто, Вилсон решает попытаться отговорить женщину от сотрудничества со злодеями. Дата выпуска : 2021-04-09 Дата записи : 2021-04-09 Программа кодирования : mkvmerge v85.0 ('Shame For You') 64-bit Библиотека кодирования : libebml v1.4.5 + libmatroska v1.7.1 / xvid4psp5 Обложка : Yes Attachments : cover.jpg ACTOR : Энтони Маки, Себастиан Стэн, Уайатт Расселл, Erin Kellyman, Даниэль Брюль, Emily VanCamp, Danny Ramirez, Adepero Oduye, Marie Martinová, Veronica Falcón, Adam Vacula, Sinéad Phelps, Antonie Formanová, Clé Bennett, Janeshia Adams-Ginyard, Zola William... ARTIST : Энтони Маки, Себастиан Стэн, Уайатт Расселл, Erin Kellyman, Даниэль Брюль, Emily VanCamp, Danny Ramirez, Adepero Oduye, Marie Martinová, Veronica Falcón, Adam Vacula, Sinéad Phelps, Antonie Formanová, Clé Bennett, Janeshia Adams-Ginyard, Zola William... DIRECTOR : Kari Skogland EPISODE.PART_NUM : 4 GENRE : Боевик и Приключения, драма LAW_RATING : TV-14 PRODUCER : Ariella Blejer, Dawn Kamoche RATING : TV-14 SCREENPLAY_BY : Derek Kolstad SEASON.PART_NUM : 1 SUMMARY : Чтобы продолжить работать вместе с Земо, Барнс должен получить разрешение у Айо. Согласится ли вакандийская воительница дать свободу бывшему врагу? Выследив Моргенто, Вилсон решает попытаться отговорить женщину от сотрудничества со злодеями. SYNOPSIS : Чтобы продолжить работать вместе с Земо, Барнс должен получить разрешение у Айо. Согласится ли вакандийская воительница дать свободу бывшему врагу? Выследив Моргенто, Вилсон решает попытаться отговорить женщину от сотрудничества со злодеями. Когда в происходящее вмешивается Уокер, ситуация приобретает трагический оборот. WRITTEN_BY : Derek Kolstad Видео Идентификатор : 1 Формат : HEVC Формат/Информация : High Efficiency Video Coding Профиль формата : Main 10@L4.1@High Идентификатор кодека : V_MPEGH/ISO/HEVC Продолжительность : 51 мин. 20 с. Битрейт : 4 627 Кбит/сек Ширина : 1 920 пикселей Высота : 804 пикселя Соотношение сторон дисплея : 2,39:1 Режим частоты кадров : Постоянный Частота кадров : 23,976 (24000/1001) кадра/сек Цветовое пространство : YUV Цветовая субдискретизация : 4:2:0 Битовая глубина : 10 бит Бит/(Пиксели*Кадры) : 0.125 Размер потока : 1,66 Гбайт (56%) Заголовок : The Falcon and The Winter Soldier S01E04 / Rip by OldGamer Библиотека кодирования : x265 3.6+27-8787e8702: 10bit Параметры библиотеки кодирования : cpuid=1111039 / frame-threads=4 / numa-pools=16 / wpp / no-pmode / no-pme / no-psnr / no-ssim / log-level=2 / input-csp=1 / input-res=1920x804 / interlace=0 / total-frames=73849 / level-idc=41 / high-tier=1 / uhd-bd=0 / ref=5 / no-allow-non-conformance / no-repeat-headers / annexb / no-aud / no-eob / no-eos / no-hrd / info / hash=0 / temporal-layers=0 / open-gop / min-keyint=23 / keyint=240 / gop-lookahead=0 / bframes=16 / b-adapt=2 / b-pyramid / bframe-bias=0 / rc-lookahead=40 / lookahead-slices=0 / scenecut=40 / no-hist-scenecut / radl=0 / no-splice / no-intra-refresh / ctu=32 / min-cu-size=8 / rect / amp / max-tu-size=32 / tu-inter-depth=4 / tu-intra-depth=4 / limit-tu=1 / rdoq-level=2 / dynamic-rd=0.00 / no-ssim-rd / signhide / no-tskip / nr-intra=0 / nr-inter=0 / no-constrained-intra / no-strong-intra-smoothing / max-merge=5 / limit-refs=3 / no-limit-modes / me=3 / subme=7 / merange=57 / temporal-mvp / no-frame-dup / no-hme / weightp / weightb / no-analyze-src-pics / deblock=-2:-2 / no-sao / no-sao-non-deblock / rd=6 / selective-sao=0 / no-early-skip / no-rskip / no-fast-intra / no-tskip-fast / no-cu-lossless / b-intra / no-splitrd-skip / rdpenalty=0 / psy-rd=2.00 / psy-rdoq=1.00 / no-rd-refine / no-lossless / cbqpoffs=0 / crqpoffs=0 / rc=crf / crf=20.0 / qcomp=0.60 / qpstep=4 / stats-write=0 / stats-read=0 / vbv-maxrate=50000 / vbv-bufsize=50000 / vbv-init=0.9 / min-vbv-fullness=50.0 / max-vbv-fullness=80.0 / crf-max=0.0 / crf-min=0.0 / ipratio=1.40 / pbratio=1.30 / aq-mode=1 / aq-strength=1.00 / no-cutree / zone-count=1 / zones: / start-frame=70180 / end-frame=73849 / qp=36 / no-strict-cbr / qg-size=32 / no-rc-grain / qpmax=69 / qpmin=0 / no-const-vbv / sar=1 / overscan=0 / videoformat=5 / range=0 / colorprim=2 / transfer=2 / colormatrix=2 / chromaloc=0 / display-window=0 / cll=0,0 / min-luma=0 / max-luma=1023 / log2-max-poc-lsb=8 / vui-timing-info / vui-hrd-info / slices=1 / no-opt-qp-pps / no-opt-ref-list-length-pps / no-multi-pass-opt-rps / scenecut-bias=0.00 / no-opt-cu-delta-qp / no-aq-motion / no-hdr10 / no-hdr10-opt / no-dhdr10-opt / no-idr-recovery-sei / analysis-reuse-level=0 / analysis-save-reuse-level=0 / analysis-load-reuse-level=0 / scale-factor=0 / refine-intra=0 / refine-inter=0 / refine-mv=1 / refine-ctu-distortion=0 / no-limit-sao / ctu-info=0 / no-lowpass-dct / refine-analysis-type=0 / copy-pic=1 / max-ausize-factor=1.0 / no-dynamic-refine / no-single-sei / no-hevc-aq / no-svt / no-field / qp-adaptation-range=1.00 / scenecut-aware-qp=0conformance-window-offsets / right=0 / bottom=0 / decoder-max-rate=0 / no-vbv-live-multi-pass / no-mcstf / no-sbrc Язык : Английский По умолчанию : Да Принудительно : Нет Аудио #1 Идентификатор : 2 Формат : AC-3 Формат/Информация : Audio Coding 3 Коммерческое название : Dolby Digital Идентификатор кодека : A_AC3 Продолжительность : 51 мин. 21 с. Вид битрейта : Постоянный Битрейт : 320 Кбит/сек Канал(-ы) : 2 канала Расположение каналов : L R Частота дискретизации : 44,1 КГц Частота кадров : 28,711 кадров/сек (1536 SPF) Метод сжатия : С потерями Размер потока : 118 Мбайт (4%) Заголовок : DUB (Flarrow Films) Язык : Русский Вид сервиса : Complete Main По умолчанию : Да Принудительно : Нет Нормализация звука речи : -27 dB compr : -0.28 dB dynrng : 11.76 dB dsurmod : Not Dolby Surround encoded mixlevel : 285 dB roomtyp : Small dialnorm_Average : -27 dB dialnorm_Minimum : -27 dB dialnorm_Maximum : -27 dB Аудио #2 Идентификатор : 3 Формат : AC-3 Формат/Информация : Audio Coding 3 Коммерческое название : Dolby Digital Идентификатор кодека : A_AC3 Продолжительность : 51 мин. 20 с. Вид битрейта : Постоянный Битрейт : 640 Кбит/сек Канал(-ы) : 6 каналов Расположение каналов : L R C LFE Ls Rs Частота дискретизации : 48,0 КГц Частота кадров : 31,250 кадров/сек (1536 SPF) Метод сжатия : С потерями Размер потока : 235 Мбайт (8%) Заголовок : MVO (LostFilm) Язык : Русский Вид сервиса : Complete Main По умолчанию : Нет Принудительно : Нет Нормализация звука речи : -27 dB compr : -0.28 dB dynrng : 16.42 dB cmixlev : -3.0 dB surmixlev : -3 dB mixlevel : 285 dB roomtyp : Small dialnorm_Average : -27 dB dialnorm_Minimum : -27 dB dialnorm_Maximum : -27 dB Аудио #3 Идентификатор : 4 Формат : AC-3 Формат/Информация : Audio Coding 3 Коммерческое название : Dolby Digital Идентификатор кодека : A_AC3 Продолжительность : 51 мин. 20 с. Вид битрейта : Постоянный Битрейт : 384 Кбит/сек Канал(-ы) : 6 каналов Расположение каналов : L R C LFE Ls Rs Частота дискретизации : 48,0 КГц Частота кадров : 31,250 кадров/сек (1536 SPF) Метод сжатия : С потерями Размер потока : 141 Мбайт (5%) Заголовок : MVO (TVShows) Язык : Русский Вид сервиса : Complete Main По умолчанию : Нет Принудительно : Нет Нормализация звука речи : -27 dB compr : -0.28 dB dynrng : -1.48 dB cmixlev : -3.0 dB surmixlev : -3 dB mixlevel : 285 dB roomtyp : Small dialnorm_Average : -27 dB dialnorm_Minimum : -27 dB dialnorm_Maximum : -27 dB Аудио #4 Идентификатор : 5 Формат : AC-3 Формат/Информация : Audio Coding 3 Коммерческое название : Dolby Digital Идентификатор кодека : A_AC3 Продолжительность : 51 мин. 20 с. Вид битрейта : Постоянный Битрейт : 384 Кбит/сек Канал(-ы) : 6 каналов Расположение каналов : L R C LFE Ls Rs Частота дискретизации : 48,0 КГц Частота кадров : 31,250 кадров/сек (1536 SPF) Метод сжатия : С потерями Размер потока : 141 Мбайт (5%) Заголовок : MVO (AlexFilm) Язык : Русский Вид сервиса : Complete Main По умолчанию : Нет Принудительно : Нет Нормализация звука речи : -27 dB compr : -0.28 dB dynrng : -1.48 dB cmixlev : -3.0 dB surmixlev : -3 dB mixlevel : 285 dB roomtyp : Small dialnorm_Average : -27 dB dialnorm_Minimum : -27 dB dialnorm_Maximum : -27 dB Аудио #5 Идентификатор : 6 Формат : AC-3 Формат/Информация : Audio Coding 3 Коммерческое название : Dolby Digital Идентификатор кодека : A_AC3 Продолжительность : 51 мин. 20 с. Вид битрейта : Постоянный Битрейт : 384 Кбит/сек Канал(-ы) : 6 каналов Расположение каналов : L R C LFE Ls Rs Частота дискретизации : 48,0 КГц Частота кадров : 31,250 кадров/сек (1536 SPF) Метод сжатия : С потерями Размер потока : 141 Мбайт (5%) Заголовок : MVO (NewStudio) Язык : Русский Вид сервиса : Complete Main По умолчанию : Нет Принудительно : Нет Нормализация звука речи : -27 dB compr : -0.28 dB dynrng : -1.48 dB cmixlev : -3.0 dB surmixlev : -3 dB mixlevel : 285 dB roomtyp : Small dialnorm_Average : -27 dB dialnorm_Minimum : -27 dB dialnorm_Maximum : -27 dB Аудио #6 Идентификатор : 7 Формат : AC-3 Формат/Информация : Audio Coding 3 Коммерческое название : Dolby Digital Идентификатор кодека : A_AC3 Продолжительность : 51 мин. 20 с. Вид битрейта : Постоянный Битрейт : 448 Кбит/сек Канал(-ы) : 6 каналов Расположение каналов : L R C LFE Ls Rs Частота дискретизации : 48,0 КГц Частота кадров : 31,250 кадров/сек (1536 SPF) Метод сжатия : С потерями Размер потока : 164 Мбайт (5%) Заголовок : MVO (Цікава Ідея) Язык : Украинский Вид сервиса : Complete Main По умолчанию : Нет Принудительно : Нет Нормализация звука речи : -27 dB compr : -0.28 dB dynrng : -0.86 dB cmixlev : -3.0 dB surmixlev : -3 dB mixlevel : 285 dB roomtyp : Small dialnorm_Average : -27 dB dialnorm_Minimum : -27 dB dialnorm_Maximum : -27 dB Аудио #7 Идентификатор : 8 Формат : AC-3 Формат/Информация : Audio Coding 3 Коммерческое название : Dolby Digital Идентификатор кодека : A_AC3 Продолжительность : 51 мин. 20 с. Вид битрейта : Постоянный Битрейт : 384 Кбит/сек Канал(-ы) : 6 каналов Расположение каналов : L R C LFE Ls Rs Частота дискретизации : 48,0 КГц Частота кадров : 31,250 кадров/сек (1536 SPF) Метод сжатия : С потерями Размер потока : 141 Мбайт (5%) Заголовок : MVO (DniproFilm) Язык : Украинский Вид сервиса : Complete Main По умолчанию : Нет Принудительно : Нет Нормализация звука речи : -27 dB compr : -0.28 dB dynrng : -1.48 dB cmixlev : -3.0 dB surmixlev : -3 dB mixlevel : 285 dB roomtyp : Small dialnorm_Average : -27 dB dialnorm_Minimum : -27 dB dialnorm_Maximum : -27 dB Аудио #8 Идентификатор : 9 Формат : AC-3 Формат/Информация : Audio Coding 3 Коммерческое название : Dolby Digital Идентификатор кодека : A_AC3 Продолжительность : 51 мин. 20 с. Вид битрейта : Постоянный Битрейт : 640 Кбит/сек Канал(-ы) : 6 каналов Расположение каналов : L R C LFE Ls Rs Частота дискретизации : 48,0 КГц Частота кадров : 31,250 кадров/сек (1536 SPF) Метод сжатия : С потерями Размер потока : 235 Мбайт (8%) Язык : Английский Вид сервиса : Complete Main По умолчанию : Нет Принудительно : Нет Нормализация звука речи : -27 dB compr : -0.28 dB dynrng : -7.66 dB cmixlev : -3.0 dB surmixlev : -3 dB mixlevel : 285 dB roomtyp : Small dialnorm_Average : -27 dB dialnorm_Minimum : -27 dB dialnorm_Maximum : -27 dB Текст #1 Идентификатор : 10 Формат : UTF-8 Идентификатор кодека : S_TEXT/UTF8 Идентификатор кодека/Информация : UTF-8 Plain Text Продолжительность : 38 мин. 7 с. Битрейт : 1 бит/сек Частота кадров : 0,003 кадр/сек Число элементов : 7 Размер потока : 448 байт (0%) Заголовок : Russian @ forced SRT (Flarrow Films / w200) Язык : Русский По умолчанию : Да Принудительно : Нет Текст #2 Идентификатор : 11 Формат : UTF-8 Идентификатор кодека : S_TEXT/UTF8 Идентификатор кодека/Информация : UTF-8 Plain Text Продолжительность : 5 с. 441 мс. Битрейт : 57 бит/сек Частота кадров : 0,184 кадр/сек Число элементов : 1 Размер потока : 39,0 байт (0%) Заголовок : Russian @ forced SRT (MVO TVShows и LostFilm / w200) Язык : Русский По умолчанию : Нет Принудительно : Нет Текст #3 Идентификатор : 12 Формат : UTF-8 Идентификатор кодека : S_TEXT/UTF8 Идентификатор кодека/Информация : UTF-8 Plain Text Продолжительность : 46 мин. 39 с. Битрейт : 93 бит/сек Частота кадров : 0,200 кадр/сек Число элементов : 559 Размер потока : 31,8 КиБ (0%) Заголовок : Russian @ SRT (Где тексты, Лебовски?) Язык : Русский По умолчанию : Нет Принудительно : Нет Текст #4 Идентификатор : 13 Формат : UTF-8 Идентификатор кодека : S_TEXT/UTF8 Идентификатор кодека/Информация : UTF-8 Plain Text Продолжительность : 51 мин. 17 с. Битрейт : 87 бит/сек Частота кадров : 0,182 кадр/сек Число элементов : 561 Размер потока : 32,8 КиБ (0%) Заголовок : Russian @ SRT (FOCS) Язык : Русский По умолчанию : Нет Принудительно : Нет Текст #5 Идентификатор : 14 Формат : UTF-8 Идентификатор кодека : S_TEXT/UTF8 Идентификатор кодека/Информация : UTF-8 Plain Text Продолжительность : 5 с. 441 мс. Битрейт : 60 бит/сек Частота кадров : 0,184 кадр/сек Число элементов : 1 Размер потока : 41,0 байт (0%) Заголовок : Ukrainian @ forced SRT (MVO Цікава Ідея / w200) Язык : Украинский По умолчанию : Нет Принудительно : Нет Текст #6 Идентификатор : 15 Формат : UTF-8 Идентификатор кодека : S_TEXT/UTF8 Идентификатор кодека/Информация : UTF-8 Plain Text Продолжительность : 38 мин. 7 с. Битрейт : 2 бит/сек Частота кадров : 0,009 кадр/сек Число элементов : 21 Размер потока : 788 байт (0%) Заголовок : Ukrainian @ forced SRT (MVO DniproFilm / w200) Язык : Украинский По умолчанию : Нет Принудительно : Нет Текст #7 Идентификатор : 16 Формат : UTF-8 Идентификатор кодека : S_TEXT/UTF8 Идентификатор кодека/Информация : UTF-8 Plain Text Продолжительность : 46 мин. 41 с. Битрейт : 59 бит/сек Частота кадров : 0,220 кадр/сек Число элементов : 616 Размер потока : 20,2 КиБ (0%) Заголовок : English @ SRT SDH Язык : Английский По умолчанию : Нет Принудительно : Нет Меню 00:00:00.000 : en:Chapter 01
[+] Скриншоты
Релиз от: OldGamer

Всего файлов в раздаче: 8 
The.Falcon.and.The.Winter.Soldier.S01E01.New.World.Order.mkv2.62 GB
The.Falcon.and.The.Winter.Soldier.S01E02.The.Star.Spangled.Man.mkv2.65 GB
The.Falcon.and.The.Winter.Soldier.S01E03.Power.Broker.mkv2.82 GB
The.Falcon.and.The.Winter.Soldier.S01E04.The.Whole.World.Is.Watching.mkv2.95 GB
The.Falcon.and.The.Winter.Soldier.S01E05.Truth.mkv3.33 GB
The.Falcon.and.The.Winter.Soldier.S01E06.One.World.One.People.mkv3.42 GB
back.jpg182.78 kB
cover.jpg80.77 kB

Похожие раздачи по запросу - Сокол
2024-07-18 magnet Сева Сокол - Я-вольный ветер (2023) MP3 127.26 MB ↑ 0 ↓ 0

Комментарии


Зарегистрируйтесь чтобы добавить комментарий
Торрент клиент
byTorrent - программа для загрузки торрент-файлов.

Скачать byTorrent.exe (1,5 МБ)

Скачать byTorrent.zip (0,6 МБ)

Поддержи torrent.by
российских рублей
(300 российских рублей это 4$)

Обратная связь rss

End game ©