↑↓torrent.by
Поиск
Логин:  Регистрация
Пароль:

Дом Дракона / House of the Dragon [02x01 из 08] (2024) UHD WEB-DL 2160p | 4K | SDR | D, P

download Скачать торрент-файл   magnet Магнитная ссылка Размер: 7.55 GB Добавлен: 2024-06-25 11:00
Пиры будут получены из сети DHT
Последний сидер был замечен 2024-06-25 11:00
Название: Дом Дракона Оригинальное название: House of the Dragon Год выхода: 2024 Производство: США / HBO, 1:26 Pictures Жанр: Фэнтези, боевик, драма, мелодрама Перевод: Профессиональный дублированный, профессиональный многоголосый Продолжительность: 01х ~01:00:00 Режиссёры: Алан Тейлор, Клер Килнер, Гита Патель, Андрий Парекх, Лони Перистер В ролях: Эмма Д`Арси, Мэтт Смит, Ив Бест, Оливия Кук, Рис Иванс, Соноя Мидзуно, Дэвид Хорович, Грэм МакТавиш, Билл Патерсон, Стив Туссэн, Уил Джонсон, Энтони Флэнеган, Эмили Кэри Описание: После смерти короля Визериса династия Таргариенов начинает бескомпромиссную борьбу за Железный трон. Предводительницей «чёрной» ветви становится принцесса Рейнира, а на стороне «зелёной» оказывается её лучшая подруга и дочь десницы короля Алисента. В битве за престол соперницы заручаются поддержкой неожиданных союзников, плетут интриги и используют разрушительную мощь драконов. Формат: MKV Качество: WEB-DL 2160p Видео: MPEGH HEVC / ~15.0 Mbps / 3840x2160 / 0.075 Бит/(Пиксели*Кадры) / 23.976 fps Аудио 01: AC-3, 6 ch, 384 kbps | Русский, DUB | Кравец-Рекордз | Аудио 02: AC-3, 6 ch, 384 kbps | Русский, MVO | Jaskier | Аудио 03: AC-3, 6 ch, 640 kbps | Русский, MVO | NewComers | Аудио 04: AC-3, 2 ch, 384 kbps | Русский, MVO | HDRezka | Аудио 05: AC-3, 2 ch, 384 kbps | Русский, MVO | LostFilm | Аудио 06: E-AC3, 6 ch, 256 kbps | Русский, MVO | Syncmer | Аудио 07: AC-3, 2 ch, 192 kbps | Русский, MVO | 15K3 | Аудио 08: E-AC3 JOC, 6 ch, 640 kbps | Английский | Субтитры: Русские (Forced, Full), Английские (Full, SDH)
[+] MediainfoОбщее Уникальный идентификатор : 294126219408362489785591371101292544484 (0xDD46A63B1143805F79475084DA3D41E4) Полное имя : E:/Раздачи/House.of.the.Dragon.S02.2160p.AMZN.WEB-DL.H.265.SDR/House.of.the.Dragon.S02E01.A.Son.for.a.Son.2160p.AMZN.WEB-DL.H.265.mkv Формат : Matroska Версия формата : Version 4 Размер файла : 7,55 Гбайт Продолжительность : 58 м. 7 с. Общий поток : 18,6 Мбит/сек Частота кадров : 23,976 кадра/сек Дата кодирования : 2024-06-24 20:38:30 UTC Программа кодирования : mkvmerge v81.0 ('Milliontown') 64-bit Библиотека кодирования : libebml v1.4.4 + libmatroska v1.7.1 Обложка : Yes Attachments : cover12.png Видео Идентификатор : 1 Формат : HEVC Формат/Информация : High Efficiency Video Coding Профиль формата : Main@L5@Main Идентификатор кодека : V_MPEGH/ISO/HEVC Продолжительность : 58 м. 5 с. Битрейт : 15,0 Мбит/сек Ширина : 3 840 пикселей Высота : 2 160 пикселей Соотношение сторон : 16:9 Режим частоты кадров : Постоянный Частота кадров : 23,976 (24000/1001) кадра/сек Цветовое пространство : YUV Субдискретизация насыщенности : 4:2:0 Битовая глубина : 8 бит Бит/(Пиксели*Кадры) : 0.075 Размер потока : 6,07 Гбайт (80%) Default : Да Forced : Нет Цветовой диапазон : Limited Основные цвета : BT.709 Характеристики трансфера : BT.709 Коэффициенты матрицы : BT.709 Аудио #1 Идентификатор : 2 Формат : AC-3 Формат/Информация : Audio Coding 3 Коммерческое название : Dolby Digital Идентификатор кодека : A_AC3 Продолжительность : 58 м. 5 с. Вид битрейта : Постоянный Битрейт : 384 Кбит/сек Каналы : 6 каналов Channel layout : L R C LFE Ls Rs Частота : 48,0 КГц Частота кадров : 31,250 кадров/сек (1536 SPF) Метод сжатия : С потерями Размер потока : 160 Мбайт (2%) Заголовок : DUB - Кравец-Рекордз Язык : Russian Service kind : Complete Main Default : Да Forced : Нет Аудио #2 Идентификатор : 3 Формат : AC-3 Формат/Информация : Audio Coding 3 Коммерческое название : Dolby Digital Идентификатор кодека : A_AC3 Продолжительность : 58 м. 5 с. Вид битрейта : Постоянный Битрейт : 384 Кбит/сек Каналы : 6 каналов Channel layout : L R C LFE Ls Rs Частота : 48,0 КГц Частота кадров : 31,250 кадров/сек (1536 SPF) Метод сжатия : С потерями Размер потока : 160 Мбайт (2%) Заголовок : MVO - Jaskier Язык : Russian Service kind : Complete Main Default : Нет Forced : Нет Аудио #3 Идентификатор : 4 Формат : AC-3 Формат/Информация : Audio Coding 3 Коммерческое название : Dolby Digital Идентификатор кодека : A_AC3 Продолжительность : 58 м. 5 с. Вид битрейта : Постоянный Битрейт : 640 Кбит/сек Каналы : 6 каналов Channel layout : L R C LFE Ls Rs Частота : 48,0 КГц Частота кадров : 31,250 кадров/сек (1536 SPF) Метод сжатия : С потерями Размер потока : 266 Мбайт (3%) Заголовок : MVO - NewComers Язык : Russian Service kind : Complete Main Default : Нет Forced : Нет Аудио #4 Идентификатор : 5 Формат : AC-3 Формат/Информация : Audio Coding 3 Коммерческое название : Dolby Digital Идентификатор кодека : A_AC3 Продолжительность : 58 м. 5 с. Вид битрейта : Постоянный Битрейт : 384 Кбит/сек Каналы : 2 канала Channel layout : L R Частота : 48,0 КГц Частота кадров : 31,250 кадров/сек (1536 SPF) Метод сжатия : С потерями Размер потока : 160 Мбайт (2%) Заголовок : MVO - HDRezka Язык : Russian Service kind : Complete Main Default : Нет Forced : Нет Аудио #5 Идентификатор : 6 Формат : AC-3 Формат/Информация : Audio Coding 3 Коммерческое название : Dolby Digital Идентификатор кодека : A_AC3 Продолжительность : 58 м. 7 с. Вид битрейта : Постоянный Битрейт : 384 Кбит/сек Каналы : 2 канала Channel layout : L R Частота : 48,0 КГц Частота кадров : 31,250 кадров/сек (1536 SPF) Метод сжатия : С потерями Размер потока : 160 Мбайт (2%) Заголовок : MVO - LostFilm Язык : Russian Service kind : Complete Main Default : Нет Forced : Нет Аудио #6 Идентификатор : 7 Формат : AC-3 Формат/Информация : Audio Coding 3 Коммерческое название : Dolby Digital Идентификатор кодека : A_AC3 Продолжительность : 58 м. 5 с. Вид битрейта : Постоянный Битрейт : 384 Кбит/сек Каналы : 6 каналов Channel layout : L R C LFE Ls Rs Частота : 48,0 КГц Частота кадров : 31,250 кадров/сек (1536 SPF) Метод сжатия : С потерями Размер потока : 160 Мбайт (2%) Заголовок : MVO - TVShows Язык : Russian Service kind : Complete Main Default : Нет Forced : Нет Аудио #7 Идентификатор : 8 Формат : E-AC-3 Формат/Информация : Enhanced AC-3 Коммерческое название : Dolby Digital Plus Идентификатор кодека : A_EAC3 Продолжительность : 58 м. 5 с. Вид битрейта : Постоянный Битрейт : 256 Кбит/сек Каналы : 6 каналов Channel layout : L R C LFE Ls Rs Частота : 48,0 КГц Частота кадров : 31,250 кадров/сек (1536 SPF) Метод сжатия : С потерями Размер потока : 106 Мбайт (1%) Заголовок : MVO - Syncmer Язык : Russian Service kind : Complete Main Default : Нет Forced : Нет Аудио #8 Идентификатор : 9 Формат : AC-3 Формат/Информация : Audio Coding 3 Коммерческое название : Dolby Digital Идентификатор кодека : A_AC3 Продолжительность : 58 м. 5 с. Вид битрейта : Постоянный Битрейт : 192 Кбит/сек Каналы : 2 канала Channel layout : L R Частота : 48,0 КГц Частота кадров : 31,250 кадров/сек (1536 SPF) Метод сжатия : С потерями Размер потока : 79,8 Мбайт (1%) Заголовок : MVO - 15K3 Язык : Russian Service kind : Complete Main Default : Нет Forced : Нет Аудио #9 Идентификатор : 10 Формат : E-AC-3 JOC Формат/Информация : Enhanced AC-3 with Joint Object Coding Коммерческое название : Dolby Digital Plus with Dolby Atmos Идентификатор кодека : A_EAC3 Продолжительность : 58 м. 5 с. Вид битрейта : Постоянный Битрейт : 640 Кбит/сек Каналы : 6 каналов Channel layout : L R C LFE Ls Rs Частота : 48,0 КГц Частота кадров : 31,250 кадров/сек (1536 SPF) Метод сжатия : С потерями Размер потока : 266 Мбайт (3%) Язык : English Service kind : Complete Main Default : Нет Forced : Нет Complexity index : 16 Number of dynamic objects : 15 Bed channel count : 1 канал Bed channel configuration : LFE Текст #1 Идентификатор : 11 Формат : UTF-8 Идентификатор кодека : S_TEXT/UTF8 Идентификатор кодека/Информация : UTF-8 Plain Text Продолжительность : 52 м. 10 с. Битрейт : 0 бит/сек Частота кадров : 0,002 кадр/сек Count of elements : 5 Размер потока : 259 байт (0%) Заголовок : Rus (Forced) Язык : Russian Default : Да Forced : Нет Текст #2 Идентификатор : 12 Формат : UTF-8 Идентификатор кодека : S_TEXT/UTF8 Идентификатор кодека/Информация : UTF-8 Plain Text Продолжительность : 54 м. 12 с. Битрейт : 77 бит/сек Частота кадров : 0,159 кадр/сек Count of elements : 517 Размер потока : 30,8 Кбайт (0%) Заголовок : Rus (Amedia) Язык : Russian Default : Нет Forced : Нет Текст #3 Идентификатор : 13 Формат : UTF-8 Идентификатор кодека : S_TEXT/UTF8 Идентификатор кодека/Информация : UTF-8 Plain Text Продолжительность : 54 м. 54 с. Битрейт : 81 бит/сек Частота кадров : 0,177 кадр/сек Count of elements : 582 Размер потока : 32,9 Кбайт (0%) Заголовок : Rus (7kingdoms) Язык : Russian Default : Нет Forced : Нет Текст #4 Идентификатор : 14 Формат : UTF-8 Идентификатор кодека : S_TEXT/UTF8 Идентификатор кодека/Информация : UTF-8 Plain Text Продолжительность : 54 м. 54 с. Битрейт : 76 бит/сек Частота кадров : 0,195 кадр/сек Count of elements : 642 Размер потока : 30,9 Кбайт (0%) Заголовок : Rus (NewComers) Язык : Russian Default : Нет Forced : Нет Текст #5 Идентификатор : 15 Формат : UTF-8 Идентификатор кодека : S_TEXT/UTF8 Идентификатор кодека/Информация : UTF-8 Plain Text Продолжительность : 54 м. 12 с. Битрейт : 51 бит/сек Частота кадров : 0,180 кадр/сек Count of elements : 584 Размер потока : 20,3 Кбайт (0%) Язык : English (US) Default : Нет Forced : Нет Текст #6 Идентификатор : 16 Формат : UTF-8 Идентификатор кодека : S_TEXT/UTF8 Идентификатор кодека/Информация : UTF-8 Plain Text Продолжительность : 57 м. 46 с. Битрейт : 56 бит/сек Частота кадров : 0,230 кадр/сек Count of elements : 797 Размер потока : 24,0 Кбайт (0%) Заголовок : SDH Язык : English (US) Default : Нет Forced : Нет
[+] Скриншоты

Всего файлов в раздаче: 1 
House.of.the.Dragon.S02E01.A.Son.for.a.Son.2160p.AMZN.WEB-DL.H.265.RGzsRutracker.mkv7.55 GB

Похожие раздачи по запросу - Дом
Вчера magnet Дом-ловушка / Accused (2023) BDRip 1080p от MegaPeer | D 6.55 GB ↑ 0 ↓ 5
Вчера magnet Дом-ловушка / Accused (2023) BDRip от MegaPeer | D 1.46 GB ↑ 0 ↓ 2
Вчера magnet Дом-ловушка / Accused (2023) BDRip 720p от MegaPeer | D 3.03 GB ↑ 0 ↓ 1
Вчера magnet Милый дом / Seuwiteuhom / Sweet Home [S03] (2023) WEBRip 1080p от Kerob | L2 15.73 GB ↑ 0 ↓ 0
Вчера magnet Милый дом / Seuwiteuhom / Sweet Home [S03] (2023) WEBRip от Kerob | L2 4.75 GB ↑ 0 ↓ 0
2024-07-19 magnet Дом Дракона / House of the Dragon [01-02x01-15 из 18] (2022-2024) WEB-DLRip | LostFilm 14.78 GB ↑ 0 ↓ 2
2024-07-18 magnet Дом Дракона / House of the Dragon [02x01-05 из 08] (2024) UHD WEB-DL 2160p от Scarabey | 4K | HDR | Dolby Vision | P | LostFilm, HDRezka, Syncmer, 15K3 50.74 GB ↑ 0 ↓ 2

Комментарии


Зарегистрируйтесь чтобы добавить комментарий
Торрент клиент
byTorrent - программа для загрузки торрент-файлов.

Скачать byTorrent.exe (1,5 МБ)

Скачать byTorrent.zip (0,6 МБ)

Поддержи torrent.by
российских рублей
(300 российских рублей это 4$)

Обратная связь rss

End game ©