↑↓torrent.by
Поиск
Логин:  Регистрация
Пароль:

Эмили в Париже / Emily in Paris [S03] (2022) WEB-DL 1080p | Movie Dubbing, LostFilm, TVShows

download Скачать торрент-файл   magnet Магнитная ссылка Размер: 15.02 GB Добавлен: 2024-06-25 11:00
Пиры будут получены из сети DHT
Последний сидер был замечен 2024-06-25 11:00
Название: Эмили в Париже Оригинальное название: Emily in Paris Год выхода: 2022 Производство: США / Netflix, Darren Star Productions, Jax Media, MTV Studios Жанр: Фэнтези, боевик, драма, мелодрама Перевод: Профессиональный дублированный, профессиональный многоголосый Продолжительность: 10х ~00:36:00 Режиссёры: Эндрю Флеминг, Питер Лоэр, Катина Медина Мора В ролях: Лили Коллинз, Филиппин Леруа-Больё, Эшли Пак, Сэмюэл Арнольд, Брюно Гуэри, Лукас Браво, Камилль Раза, Люсьен Лависконт, Уильям Абади, Кевин Фернандес, Жан-Кристоф Буве, Кейт Уолш Описание: Молодая девушка отправилась в Париж, чтобы устроиться на работу в маркетинговую контору. Эмили стала сотрудницей компании Savoir, где ей предстоит заниматься продвижением брендов премиум-класса в социальных сетях. Начальник фирмы недоволен девушкой, ведь она почти не знает язык и плохо ориентируется в местной культуре. Молодой человек хочет, чтобы Эмили вернулась обратно, но героиня не намерена так просто сдаваться. К тому же в Париже она тоже оказывается в эпицентре любовных интриг. Формат: MKV Качество: WEB-DL 1080p Видео: MPEG4 AVC / ~4649 kbps / 1920x1080 / 0.094 Бит/(Пиксели*Кадры) / 23.976 fps Аудио 01: E-AC3, 6 ch, 640 kbps | Русский, DUB | Movie Dubbing | Аудио 02: AC-3, 2 ch, 384 kbps | Русский, MVO | LostFilm | Аудио 03: AC-3, 2 ch, 192 kbps | Русский, MVO | TVShows | Аудио 04: E-AC3, 6 ch, 640 kbps | Английский | Субтитры: Русские (Full), Английские (Full, SDH)
[+] MediainfoОбщее Уникальный идентификатор : 133222855781427989259934400388356370990 (0x6439C9E9B9D144C082F90EE65743F22E) Полное имя : E:/Сериалы/Сериалы/Эмили в Париже/Emily.in.Paris.S03.WEBDL.1080p.Rus.Eng/Emily.in.Paris.S03E01.WEBDL.1080p.mkv Формат : Matroska Версия формата : Version 4 Размер файла : 1,64 Гбайт Продолжительность : 36 мин. 7 с. Режим общего битрейта : Переменный Общий битрейт : 6 507 Кбит/сек Частота кадров : 23,976 кадра/сек Дата кодирования : 2024-06-08 11:16:31 UTC Программа кодирования : mkvmerge v85.0 ('Shame For You') 64-bit Библиотека кодирования : libebml v1.4.5 + libmatroska v1.7.1 Видео Идентификатор : 1 Формат : AVC Формат/Информация : Advanced Video Codec Профиль формата : Main@L4 Настройки формата : CABAC / 3 Ref Frames Параметр CABAC формата : Да Параметр RefFrames формата : 3 кадра Идентификатор кодека : V_MPEG4/ISO/AVC Продолжительность : 36 мин. 6 с. Вид битрейта : Переменный Битрейт : 4 649 Кбит/сек Номинальный битрейт : 5 000 Кбит/сек Максимальный битрейт : 7 500 Кбит/сек Ширина : 1 920 пикселей Высота : 1 080 пикселей Соотношение сторон дисплея : 16:9 Режим частоты кадров : Постоянный Частота кадров : 23,976 (24000/1001) кадра/сек Цветовое пространство : YUV Цветовая субдискретизация : 4:2:0 Битовая глубина : 8 бит Тип развёртки : Прогрессивная Бит/(Пиксели*Кадры) : 0.094 Размер потока : 1,17 Гбайт (71%) Библиотека кодирования : x264 core 148 r2727 7d026e8 Параметры библиотеки кодирования : cabac=1 / ref=3 / deblock=1:0:0 / analyse=0x1:0x111 / me=umh / subme=10 / psy=1 / psy_rd=1.00:0.00 / mixed_ref=1 / me_range=24 / chroma_me=1 / trellis=2 / 8x8dct=0 / cqm=0 / deadzone=21,11 / fast_pskip=1 / chroma_qp_offset=-2 / threads=8 / lookahead_threads=1 / sliced_threads=0 / nr=0 / decimate=1 / interlaced=0 / bluray_compat=0 / stitchable=1 / constrained_intra=0 / bframes=2 / b_pyramid=0 / b_adapt=2 / b_bias=0 / direct=3 / weightb=1 / open_gop=0 / weightp=2 / keyint=48 / keyint_min=25 / scenecut=0 / intra_refresh=0 / rc_lookahead=48 / rc=2pass / mbtree=1 / bitrate=5000 / ratetol=1.0 / qcomp=0.50 / qpmin=6 / qpmax=51 / qpstep=4 / cplxblur=20.0 / qblur=0.5 / vbv_maxrate=7500 / vbv_bufsize=10000 / nal_hrd=vbr / filler=0 / ip_ratio=1.40 / aq=1:1.00 Язык : Английский По умолчанию : Да Принудительно : Нет Аудио #1 Идентификатор : 2 Формат : E-AC-3 Формат/Информация : Enhanced AC-3 Коммерческое название : Dolby Digital Plus Идентификатор кодека : A_EAC3 Продолжительность : 36 мин. 7 с. Вид битрейта : Постоянный Битрейт : 640 Кбит/сек Канал(-ы) : 6 каналов Расположение каналов : L R C LFE Ls Rs Частота дискретизации : 48,0 КГц Частота кадров : 31,250 кадров/сек (1536 SPF) Метод сжатия : С потерями Размер потока : 165 Мбайт (10%) Заголовок : NevaFilm Язык : Русский Вид сервиса : Complete Main По умолчанию : Да Принудительно : Нет Нормализация звука речи : -27 dB compr : -0.28 dB dialnorm_Average : -27 dB dialnorm_Minimum : -27 dB dialnorm_Maximum : -27 dB Аудио #2 Идентификатор : 3 Формат : AC-3 Формат/Информация : Audio Coding 3 Коммерческое название : Dolby Digital Идентификатор кодека : A_AC3 Продолжительность : 36 мин. 7 с. Вид битрейта : Постоянный Битрейт : 384 Кбит/сек Канал(-ы) : 2 канала Расположение каналов : L R Частота дискретизации : 48,0 КГц Частота кадров : 31,250 кадров/сек (1536 SPF) Метод сжатия : С потерями Размер потока : 99,2 Мбайт (6%) Заголовок : LF Язык : Русский Вид сервиса : Complete Main По умолчанию : Нет Принудительно : Нет Нормализация звука речи : -31 dB compr : -0.28 dB mixlevel : 281 dB roomtyp : 3 ltrtcmixlev : -3.0 dB ltrtsurmixlev : -3.0 dB lorocmixlev : -3.0 dB lorosurmixlev : -3.0 dB dialnorm_Average : -31 dB dialnorm_Minimum : -31 dB dialnorm_Maximum : -31 dB Аудио #3 Идентификатор : 4 Формат : AC-3 Формат/Информация : Audio Coding 3 Коммерческое название : Dolby Digital Идентификатор кодека : A_AC3 Продолжительность : 36 мин. 7 с. Вид битрейта : Постоянный Битрейт : 192 Кбит/сек Канал(-ы) : 2 канала Расположение каналов : L R Частота дискретизации : 48,0 КГц Частота кадров : 31,250 кадров/сек (1536 SPF) Битовая глубина : 16 бит Метод сжатия : С потерями Размер потока : 49,6 Мбайт (3%) Заголовок : TVS Язык : Русский Вид сервиса : Complete Main По умолчанию : Нет Принудительно : Нет Нормализация звука речи : -31 dB dialnorm_Average : -31 dB dialnorm_Minimum : -31 dB dialnorm_Maximum : -31 dB Аудио #4 Идентификатор : 5 Формат : E-AC-3 Формат/Информация : Enhanced AC-3 Коммерческое название : Dolby Digital Plus Идентификатор кодека : A_EAC3 Продолжительность : 36 мин. 7 с. Вид битрейта : Постоянный Битрейт : 640 Кбит/сек Канал(-ы) : 6 каналов Расположение каналов : L R C LFE Ls Rs Частота дискретизации : 48,0 КГц Частота кадров : 31,250 кадров/сек (1536 SPF) Метод сжатия : С потерями Размер потока : 165 Мбайт (10%) Заголовок : Eng Язык : Английский Вид сервиса : Complete Main По умолчанию : Нет Принудительно : Нет Нормализация звука речи : -27 dB compr : -0.28 dB dialnorm_Average : -27 dB dialnorm_Minimum : -27 dB dialnorm_Maximum : -27 dB Текст #1 Идентификатор : 6 Формат : UTF-8 Идентификатор кодека : S_TEXT/UTF8 Идентификатор кодека/Информация : UTF-8 Plain Text Продолжительность : 33 мин. 35 с. Битрейт : 130 бит/сек Частота кадров : 0,313 кадр/сек Число элементов : 631 Размер потока : 32,2 КиБ (0%) Заголовок : Rus Язык : Русский По умолчанию : Нет Принудительно : Нет Текст #2 Идентификатор : 7 Формат : UTF-8 Идентификатор кодека : S_TEXT/UTF8 Идентификатор кодека/Информация : UTF-8 Plain Text Продолжительность : 32 мин. 32 с. Битрейт : 84 бит/сек Частота кадров : 0,320 кадр/сек Число элементов : 625 Размер потока : 20,2 КиБ (0%) Заголовок : Eng Язык : Английский По умолчанию : Нет Принудительно : Нет Текст #3 Идентификатор : 8 Формат : UTF-8 Идентификатор кодека : S_TEXT/UTF8 Идентификатор кодека/Информация : UTF-8 Plain Text Продолжительность : 32 мин. 56 с. Битрейт : 88 бит/сек Частота кадров : 0,332 кадр/сек Число элементов : 657 Размер потока : 21,3 КиБ (0%) Заголовок : SDH Язык : Английский По умолчанию : Нет Принудительно : Нет Меню 00:33:09.000 : en:End Credits
[+] Скриншоты

Всего файлов в раздаче: 10 
Emily.in.Paris.S03E01.WEBDL.1080p.RGzsRutracker.mkv1.64 GB
Emily.in.Paris.S03E02.WEBDL.1080p.RGzsRutracker.mkv1.50 GB
Emily.in.Paris.S03E03.WEBDL.1080p.RGzsRutracker.mkv1.49 GB
Emily.in.Paris.S03E04.WEBDL.1080p.RGzsRutracker.mkv1.44 GB
Emily.in.Paris.S03E05.WEBDL.1080p.RGzsRutracker.mkv1.49 GB
Emily.in.Paris.S03E06.WEBDL.1080p.RGzsRutracker.mkv1.59 GB
Emily.in.Paris.S03E07.WEBDL.1080p.RGzsRutracker.mkv1.21 GB
Emily.in.Paris.S03E08.WEBDL.1080p.RGzsRutracker.mkv1.22 GB
Emily.in.Paris.S03E09.WEBDL.1080p.RGzsRutracker.mkv1.71 GB
Emily.in.Paris.S03E10.WEBDL.1080p.RGzsRutracker.mkv1.72 GB

Комментарии


Зарегистрируйтесь чтобы добавить комментарий
Торрент клиент
byTorrent - программа для загрузки торрент-файлов.

Скачать byTorrent.exe (1,5 МБ)

Скачать byTorrent.zip (0,6 МБ)

Поддержи torrent.by
российских рублей
(300 российских рублей это 4$)

Обратная связь rss

End game ©