↑↓torrent.by
Поиск
Логин:  Регистрация
Пароль:

Гладиатор / Gladiator (2000) BDRip-AVC от New-Team | D

download Скачать торрент-файл   magnet Магнитная ссылка Размер: 2.91 GB Добавлен: 2024-06-25 11:00
Пиры будут получены из сети DHT
Последний сидер был замечен 2024-06-27 17:57
«Генерал, ставший рабом. Раб, ставший гладиатором. Гладиатор, бросивший вызов империи» Страна: США, Великобритания Производство: C & L, Dawliz, DreamWorks SKG, Mill Film, Red Wagon Productions, Scott Free Productions, Universal Pictures Жанр: боевик, драма, приключения Год выпуска: 2000 Продолжительность: 02:03:35 Перевод: Профессиональный (полное дублирование) Мосфильм Оригинальная аудиодорожка: английский Cубтитры: русский Режиссер: Ридли Скотт / Ridley Scott В ролях: Рассел Кроу, Хоакин Феникс, Конни Нильсен, Оливер Рид, Ричард Харрис, Дерек Джекоби, Джимон Хунсу, Дэвид Скофилд, Джон Шрэпнел, Томас Арана... Подробнее об актерах Роли дублировали: Олег Куценко, Валерий Сторожик, Анна Каменкова, Александр Белявский, Валентин Смирнитский... Описание: В великой Римской империи не было военачальника, равного генералу Максимусу. Непобедимые легионы, которыми командовал этот благородный воин, боготворили его и могли последовать за ним даже в ад. Но случилось так, что отважный Максимус, готовый сразиться с любым противником в честном бою, оказался бессилен против вероломных придворных интриг. Генерала предали и приговорили к смерти. Чудом избежав гибели, Максимус становится гладиатором. Быстро снискав себе славу в кровавых поединках, он оказывается в знаменитом римском Колизее, на арене которого он встретится в смертельной схватке со своим заклятым врагом… Исходник: BDRemux 1080p Тип релиза: BDRip-AVC Контейнер: MKV Видео: 1024x434 (2,35:1), 23,976 кадра/сек, x264 core 138 r2356 ~ 1787 кбит/сек, 0.168 бит/пиксель Аудио: 48 кГц, Dolby Digital AC3 5.1, 448 кбит/сек DUB Мосфильм Аудио: 48 кГц, Dolby Digital AC3 5.1, 448 кбит/сек Английский Субтитры: SoftSub (srt) Оригинальная навигация по главам: есть Раздача от:
[+] MediaInfo Общее Полное имя : Гладиатор.2000.BDRip-AVC__by_AVP_Studio.mkv Формат : Matroska Версия формата : Version 4 Размер файла : 2,91 Гбайт Продолжительность : 2 ч. 34 мин. Общий битрейт : 2 685 Кбит/сек Частота кадров : 23,976 кадра/сек Дата кодирования : 2024-06-24 18:34:47 UTC Программа кодирования : mkvmerge v85.0 ('Shame For You') 64-bit Библиотека кодирования : libebml v1.4.5 + libmatroska v1.7.1 Видео Идентификатор : 1 Формат : AVC Формат/Информация : Advanced Video Codec Профиль формата : High@L4.1 Настройки формата : CABAC / 8 Ref Frames Параметр CABAC формата : Да Параметр RefFrames формата : 8 кадров Идентификатор кодека : V_MPEG4/ISO/AVC Продолжительность : 2 ч. 34 мин. Битрейт : 1 787 Кбит/сек Ширина : 1 024 пикселя Высота : 434 пикселя Соотношение сторон дисплея : 2,35:1 Режим частоты кадров : Постоянный Частота кадров : 23,976 (24000/1001) кадра/сек Цветовое пространство : YUV Цветовая субдискретизация : 4:2:0 Битовая глубина : 8 бит Тип развёртки : Прогрессивная Бит/(Пиксели*Кадры) : 0.168 Размер потока : 1,93 Гбайт (67%) Заголовок : Исходник BDRemux 1080p Библиотека кодирования : x264 core 138 r2356 a1d3d17 Параметры библиотеки кодирования : cabac=1 / ref=8 / deblock=1:-3:-2 / analyse=0x3:0x113 / me=umh / subme=10 / psy=1 / psy_rd=1.00:0.05 / mixed_ref=1 / me_range=32 / chroma_me=1 / trellis=2 / 8x8dct=1 / cqm=0 / deadzone=21,11 / fast_pskip=0 / chroma_qp_offset=-3 / threads=6 / lookahead_threads=1 / sliced_threads=0 / nr=0 / decimate=0 / interlaced=0 / bluray_compat=0 / constrained_intra=0 / bframes=8 / b_pyramid=2 / b_adapt=2 / b_bias=0 / direct=3 / weightb=1 / open_gop=0 / weightp=2 / keyint=240 / keyint_min=24 / scenecut=40 / intra_refresh=0 / rc_lookahead=40 / rc=2pass / mbtree=1 / bitrate=1787 / ratetol=1.0 / qcomp=0.60 / qpmin=0 / qpmax=69 / qpstep=4 / cplxblur=20.0 / qblur=0.5 / ip_ratio=1.40 / aq=1:1.00 Язык : Английский По умолчанию : Да Принудительно : Нет Аудио #1 Идентификатор : 2 Формат : AC-3 Формат/Информация : Audio Coding 3 Коммерческое название : Dolby Digital Идентификатор кодека : A_AC3 Продолжительность : 2 ч. 34 мин. Вид битрейта : Постоянный Битрейт : 448 Кбит/сек Канал(-ы) : 6 каналов Расположение каналов : L R C LFE Ls Rs Частота дискретизации : 48,0 КГц Частота кадров : 31,250 кадров/сек (1536 SPF) Метод сжатия : С потерями Размер потока : 497 Мбайт (17%) Заголовок : Профессиональный (дублированный) Язык : Русский По умолчанию : Да Принудительно : Нет Нормализация звука речи : -31 dB cmixlev : -3.0 dB surmixlev : -3 dB dialnorm_Average : -31 dB dialnorm_Minimum : -31 dB dialnorm_Maximum : -31 dB Аудио #2 Идентификатор : 3 Формат : AC-3 Формат/Информация : Audio Coding 3 Коммерческое название : Dolby Digital Идентификатор кодека : A_AC3 Продолжительность : 2 ч. 34 мин. Вид битрейта : Постоянный Битрейт : 448 Кбит/сек Канал(-ы) : 6 каналов Расположение каналов : L R C LFE Ls Rs Частота дискретизации : 48,0 КГц Частота кадров : 31,250 кадров/сек (1536 SPF) Метод сжатия : С потерями Размер потока : 497 Мбайт (17%) Заголовок : Оригинал Язык : Английский По умолчанию : Нет Принудительно : Нет Нормализация звука речи : -31 dB cmixlev : -4.5 dB surmixlev : -6 dB dialnorm_Average : -31 dB dialnorm_Minimum : -31 dB dialnorm_Maximum : -31 dB Текст #1 Идентификатор : 4 Формат : UTF-8 Идентификатор кодека : S_TEXT/UTF8 Идентификатор кодека/Информация : UTF-8 Plain Text Продолжительность : 2 ч. 29 мин. Битрейт : 0 бит/сек Частота кадров : 0,002 кадр/сек Число элементов : 17 Размер потока : 851 байт (0%) Заголовок : Forced SRT Язык : Русский По умолчанию : Нет Принудительно : Нет Текст #2 Идентификатор : 5 Формат : UTF-8 Идентификатор кодека : S_TEXT/UTF8 Идентификатор кодека/Информация : UTF-8 Plain Text Продолжительность : 2 ч. 26 мин. Битрейт : 62 бит/сек Частота кадров : 0,144 кадр/сек Число элементов : 1270 Размер потока : 66,9 КиБ (0%) Заголовок : SRT Язык : Русский По умолчанию : Нет Принудительно : Нет Меню 00:00:00.000 : en: 00:07:13.307 : en: 00:12:50.102 : en: 00:17:29.006 : en: 00:22:20.338 : en: 00:31:49.407 : en: 00:36:04.536 : en: 00:39:20.399 : en: 00:46:02.384 : en: 00:50:05.502 : en: 00:53:15.984 : en: 00:58:31.381 : en: 01:06:07.088 : en: 01:15:04.082 : en: 01:21:23.503 : en: 01:29:13.639 : en: 01:34:03.970 : en: 01:39:33.801 : en: 01:44:11.244 : en: 01:48:18.450 : en: 01:52:17.188 : en: 01:58:17.381 : en: 01:59:30.955 : en: 02:09:19.251 : en: 02:13:33.754 : en: 02:18:36.140 : en: 02:22:58.945 : en: 02:27:13.115 : en:
[+] Скриншоты

Всего файлов в раздаче: 1 
Гладиатор.2000.BDRip-AVC_[New-team]_by_AVP_Studio.mkv2.91 GB

Похожие раздачи по запросу - Гладиатор
2024-06-25 magnet Гладиатор / Gladiator (2000) BDRip от New-Team | D 1.10 GB ↑ 0 ↓ 0

Комментарии


Зарегистрируйтесь чтобы добавить комментарий
Торрент клиент
byTorrent - программа для загрузки торрент-файлов.

Скачать byTorrent.exe (1,5 МБ)

Скачать byTorrent.zip (0,6 МБ)

Поддержи torrent.by
российских рублей
(300 российских рублей это 4$)

Обратная связь rss

End game ©