↑↓torrent.by
Поиск
Логин:  Регистрация
Пароль:

Непогрешимые / Les Infaillibles / The Infallibles (2024) WEB-DLRip от AR-Team | P2 | ViruseProject

download Скачать торрент-файл   magnet Магнитная ссылка Размер: 1.47 GB Добавлен: temaxa 2024-06-25 11:48
Пиры будут получены из сети DHT
Последний сидер был замечен 2024-07-06 20:55
Непогрешимые / Les Infaillibles / The Infallibles (2024) WEB-DLRip
Производство: Франция, Бельгия / Monkey Pack Films, Umedia Жанр: боевик, комедия Режиссер: Frédéric Forestier Актеры: Inès Reg, Kevin Debonne, Vincent Rottiers, Moussa Maaskri, François Neycken, Hugo Gonzalez, Daphné Huynh, Loriane Klupsch и др. Описание: Череда дерзких нападений на инкассаторские бронемашины сотрясает Париж. Полиция знает, что это дело рук «семейного подряда» матёрого бандита Богарта и двух его сыновей, но и близко не может подобраться к преступникам. В надежде предотвратить очередное вооружённое ограбление власти поручают дело двум молодым легавым — парижанину Хьюго и девушке-полицейской Алие, специально для этого приглашённой из Марселя. Сходство у этих двух совершенно разных людей заключается в том, что оба в погоне за преступниками готовы нарушать законы и правила. А, возможно, только такими методами можно обезвредить неуловимую банду. Релиз от: AR-Team Продолжительность: 01:40:49 Качество видео: WEB-DLRip Перевод: Двуголосый профессиональный (ViruseProject | 18+) Язык озвучки: Русский Субтитры: Английские - отдельно Видео: Xvid, 704x352, ~1723 Kbps Аудио: AC3, 2 ch, 384 Kbps
[+] MediaInfo:
General
Complete name                  : Les.Infaillibles.2024.WEB-DLRip.AR-Team.avi
Format                         : AVI
Format/Info                    : Audio Video Interleave
Format settings                : BitmapInfoHeader / WaveFormatEx
File size                      : 1.47 GiB
Duration                       : 1 h 39 min
Overall bit rate               : 2 117 kb/s
Frame rate                     : 24.000 FPS
Writing application            : VirtualDubMod 1.5.10.3 | (build 2550/release)
Writing library                : VirtualDubMod build 2550/release

Video
ID                             : 0
Format                         : MPEG-4 Visual
Format profile                 : Advanced Simple@L5
Format settings                : BVOP1 / Custom Matrix
Format settings, BVOP          : 1
Format settings, QPel          : No
Format settings, GMC           : No warppoints
Format settings, Matrix        : Custom
Codec ID                       : XVID
Codec ID/Hint                  : XviD
Duration                       : 1 h 39 min
Bit rate                       : 1 724 kb/s
Width                          : 704 pixels
Height                         : 352 pixels
Display aspect ratio           : 2.000
Frame rate                     : 24.000 FPS
Color space                    : YUV
Chroma subsampling             : 4:2:0
Bit depth                      : 8 bits
Scan type                      : Progressive
Compression mode               : Lossy
Bits/(Pixel*Frame)             : 0.290
Stream size                    : 1.19 GiB (81%)
Writing library                : XviD 73

Audio
ID                             : 1
Format                         : AC-3
Format/Info                    : Audio Coding 3
Commercial name                : Dolby Digital
Codec ID                       : 2000
Duration                       : 1 h 39 min
Bit rate mode                  : Constant
Bit rate                       : 384 kb/s
Channel(s)                     : 2 channels
Channel layout                 : L R
Sampling rate                  : 48.0 kHz
Frame rate                     : 31.250 FPS (1536 SPF)
Compression mode               : Lossy
Stream size                    : 272 MiB (18%)
Alignment                      : Split across interleaves
Interleave, duration           : 42  ms (1.00 video frame)
Interleave, preload duration   : 500  ms
Service kind                   : Complete Main
Dialog Normalization           : -31 dB
dialnorm_Average               : -31 dB
dialnorm_Minimum               : -31 dB
dialnorm_Maximum               : -31 dB
Скриншоты:

Всего файлов в раздаче: 2 
Les.Infaillibles.2024.WEB-DLRip.AR-Team.avi1.47 GB
Les.Infaillibles.2024.WEB-DLRip.AR-Team_track4_[eng].srt97.97 kB

Похожие раздачи по запросу - Непогрешимые
2024-06-25 magnet Непогрешимые / Les Infaillibles / The Infallibles (2024) WEB-DLRip от New-Team | P2 | ViruseProject 1.47 GB ↑ 0 ↓ 0
2024-06-25 magnet Непогрешимые / Les Infaillibles / The Infallibles (2024) WEB-DLRip 720p от DoMiNo & селезень | P2 | ViruseProject 2.29 GB ↑ 0 ↓ 0
2024-06-24 magnet Непогрешимые / Les Infaillibles / The Infallibles (2024) WEB-DL 1080p | ViruseProject 7.02 GB ↑ 0 ↓ 0

Комментарии


Зарегистрируйтесь чтобы добавить комментарий
Торрент клиент
byTorrent - программа для загрузки торрент-файлов.

Скачать byTorrent.exe (1,5 МБ)

Скачать byTorrent.zip (0,6 МБ)

Поддержи torrent.by
российских рублей
(300 российских рублей это 4$)

Обратная связь rss

End game ©