↑↓torrent.by
Поиск
Логин:  Регистрация
Пароль:

Маллари / Mallari (2023) WEB-DLRip-AVC | L

download Скачать торрент-файл   magnet Магнитная ссылка Размер: 2.17 GB Раздают: 5 Качают: 0 Добавлен: il68k 2024-06-25 12:05
Пиры будут получены из сети DHT
Последний сидер был замечен сегодня в 12:51
Информация о фильме Название: Маллари Оригинальное название: Mallari Год выхода: 2023 Жанр: драма, ужасы, детектив Режиссер: Родерик Кабридо В ролях: Пиоло Паскуаль, Джанелла Сальвадор, Дж.С. Сантос, Глория Диас, Милен Дизон, Рон Анджелес, Ванджи Лабалан, Барт Гуингона, Раффи Техада О фильме: Ужасающая история об обезумевшем священнике 19 века Северино Маллари. Ходят легенды, что он убил 57 человек, чтобы помочь своей больной матери. Фильм основан на первом задокументированном серийном убийце на Филиппинах - Северино Маллари, и имеет три переплетенные основные сюжетные линии, действие которых происходит в разные периоды (1840-е, 1940-е и 2023). Фильм, описанный как "частично вымышленный", следует истории Джона Рея и Джонатана в последних двух временных рамках. Страна: Филиппины Студия: Clever Minds, Mentorque Productions Продолжительность: 02:09:58 Перевод: Любительский (многоголосый закадровый) | Синема УС Файл Кодек: Н.264 Качество: WEB-DLRip-AVC Видео: MPEG-4 AVC, 1756 kbps, 1024x414 (2.473), 23.976 fps, 0.173 bit/pixel, High@L4.1 Звук 1: 48 kHz, AC3 Dolby Digital, 2/0 (L, R) ch, ~192 kbps | Синема УС Звук 2: 48 kHz, AC3 Dolby Digital, 3/2 (L, C, R, l, r) + LFE ch, ~448 kbps | Тагальский Субтитры: английские, филиппинские (forced, full) Семпл
[+] Скриншоты
[+] MediaInfo raw : 1024x414p 1:1 @ 24000/1001 fps (cfr) x264 : using SAR=1/1 x264 : using cpu capabilities: MMX2 SSE2Fast SSSE3 SSE4.2 AVX FMA3 BMI2 AVX2 x264 : profile High, level 4.1, 4:2:0, 8-bit x264 : frame I:1519 Avg QP:11.01 size: 67170 x264 : frame P:37224 Avg QP:14.04 size: 22285 x264 : frame B:148234 Avg QP:15.54 size: 5221 x264 : consecutive B-frames: 1.6% 1.6% 7.0% 9.5% 15.0% 60.1% 2.8% 0.4% 0.3% 0.2% 0.3% 0.2% 1.2% x264 : mb I I16..4: 22.0% 53.3% 24.7% x264 : mb P I16..4: 0.9% 11.6% 1.0% P16..4: 30.0% 30.0% 18.7% 0.0% 0.0% skip: 7.9% x264 : mb B I16..4: 0.0% 0.4% 0.0% B16..8: 32.2% 15.2% 4.8% direct: 4.6% skip:42.6% L0:41.2% L1:46.8% BI:12.0% x264 : 8x8 transform intra:79.2% inter:39.4% x264 : direct mvs spatial:98.7% temporal:1.3% x264 : coded y, uvDC, uvAC intra: 92.3% 78.7% 69.8% inter: 21.5% 12.3% 7.6% x264 : i16 v, h, dc, p: 28% 7% 29% 36% x264 : i8 v, h, dc, ddl, ddr, vr, hd, vl, hu: 14% 10% 18% 8% 10% 11% 9% 10% 11% x264 : i4 v, h, dc, ddl, ddr, vr, hd, vl, hu: 12% 7% 6% 10% 15% 15% 12% 12% 12% x264 : i8c dc, h, v, p: 56% 18% 17% 9% x264 : Weighted P-Frames: Y:4.5% UV:1.5% x264 : ref P L0: 49.7% 7.6% 16.9% 5.9% 5.0% 3.1% 3.0% 1.5% 1.7% 1.2% 1.2% 0.8% 0.9% 0.7% 0.8% 0.0% x264 : ref B L0: 75.0% 11.7% 4.7% 2.2% 1.5% 1.2% 0.9% 0.6% 0.6% 0.5% 0.4% 0.4% 0.2% 0.1% x264 : ref B L1: 95.7% 4.3% x264 : kb/s:1749.55 x264 : encoded 186977 frames, 14.83 fps, 1749.55 kb/s ================================================================= General Unique ID: 144748302489091258189644138617949449405 (0x6CE5824EE459728B72506614DA10ECBD) Complete name: D:\Mallari.2023.NF.WEB-DLRip.AVC.mkv Format: Matroska Format version: Version 4 File size: 2.17 GiB Duration: 2 h 9 min Overall bit rate: 2 392 kb/s Frame rate: 23.976 FPS Movie name: Mallari (2023) WEB-DLRip-AVC _ vitolinform Encoded date: 2024-06-24 20:30:26 UTC Writing application: mkvmerge v85.0 ('Shame For You') 64-bit Writing library: libebml v1.4.5 + libmatroska v1.7.1 Attachments: poster.jpg / log.log Video ID: 1 Format: AVC Format/Info: Advanced Video Codec Format profile: High@L4.1 Format settings: CABAC / 15 Ref Frames Format settings, CABAC: Yes Format settings, Reference frames: 15 frames Codec ID: V_MPEG4/ISO/AVC Duration: 2 h 9 min Bit rate: 1 756 kb/s Width: 1 024 pixels Height: 414 pixels Display aspect ratio: 2.473 Frame rate mode: Constant Frame rate: 23.976 (24000/1001) FPS Color space: YUV Chroma subsampling: 4:2:0 Bit depth: 8 bits Scan type: Progressive Bits/(Pixel*Frame): 0.173 Stream size: 1.59 GiB (73%) Title: Маллари / Mallari (2023) Writing library: x264 core 164 r3182 be4f020 Encoding settings: cabac=1 / ref=15 / deblock=1:-3:-3 / analyse=0x3:0x113 / me=umh / subme=10 / psy=1 / psy_rd=1.00:0.05 / mixed_ref=1 / me_range=32 / chroma_me=1 / trellis=2 / 8x8dct=1 / cqm=0 / deadzone=21, 11 / fast_pskip=0 / chroma_qp_offset=-3 / threads=12 / lookahead_threads=3 / sliced_threads=0 / nr=0 / decimate=0 / interlaced=0 / bluray_compat=0 / constrained_intra=0 / bframes=12 / b_pyramid=2 / b_adapt=2 / b_bias=0 / direct=3 / weightb=1 / open_gop=0 / weightp=2 / keyint=240 / keyint_min=24 / scenecut=40 / intra_refresh=0 / rc_lookahead=60 / rc=2pass / mbtree=0 / bitrate=1756 / ratetol=1.0 / qcomp=0.60 / qpmin=0 / qpmax=69 / qpstep=4 / cplxblur=20.0 / qblur=0.5 / vbv_maxrate=50000 / vbv_bufsize=62500 / nal_hrd=none / filler=0 / ip_ratio=1.40 / pb_ratio=1.30 / aq=1:1.00 Language: Tagalog Default: Yes Forced: No Color range: Limited Color primaries: BT.709 Transfer characteristics: BT.709 Matrix coefficients: BT.709 Audio #1 ID: 2 Format: AC-3 Format/Info: Audio Coding 3 Commercial name: Dolby Digital Codec ID: A_AC3 Duration: 2 h 9 min Bit rate mode: Constant Bit rate: 192 kb/s Channel(s): 2 channels Channel layout: L R Sampling rate: 48.0 kHz Frame rate: 31.250 FPS (1536 SPF) Compression mode: Lossy Stream size: 178 MiB (8%) Title: MVO | Синема УС Language: Russian Service kind: Complete Main Default: Yes Forced: No Audio #2 ID: 3 Format: AC-3 Format/Info: Audio Coding 3 Commercial name: Dolby Digital Codec ID: A_AC3 Duration: 2 h 9 min Bit rate mode: Constant Bit rate: 448 kb/s Channel(s): 6 channels Channel layout: L R C LFE Ls Rs Sampling rate: 48.0 kHz Frame rate: 31.250 FPS (1536 SPF) Compression mode: Lossy Stream size: 416 MiB (19%) Title: Tagalog Language: Tagalog Service kind: Complete Main Default: No Forced: No Text #1 ID: 4 Format: UTF-8 Codec ID: S_TEXT/UTF8 Codec ID/Info: UTF-8 Plain Text Duration: 2 h 1 min Bit rate: 38 b/s Frame rate: 0.165 FPS Count of elements: 1199 Stream size: 34.5 KiB (0%) Title: Full Language: English Default: No Forced: No Text #2 ID: 5 Format: UTF-8 Codec ID: S_TEXT/UTF8 Codec ID/Info: UTF-8 Plain Text Duration: 2 h 6 min Bit rate: 8 b/s Frame rate: 0.030 FPS Count of elements: 229 Stream size: 7.72 KiB (0%) Title: Forced Language: fil Default: No Forced: No Text #3 ID: 6 Format: UTF-8 Codec ID: S_TEXT/UTF8 Codec ID/Info: UTF-8 Plain Text Duration: 2 h 9 min Bit rate: 61 b/s Frame rate: 0.241 FPS Count of elements: 1874 Stream size: 58.7 KiB (0%) Title: Full Language: fil Default: No Forced: No
Rip by vitolinform

Всего файлов в раздаче: 1 
Mallari.2023.NF.WEB-DLRip.AVC.mkv2.17 GB

Комментарии


Зарегистрируйтесь чтобы добавить комментарий
Торрент клиент
byTorrent - программа для загрузки торрент-файлов.

Скачать byTorrent.exe (1,5 МБ)

Скачать byTorrent.zip (0,6 МБ)

Поддержи torrent.by
российских рублей
(300 российских рублей это 4$)

Обратная связь rss

End game ©