↑↓torrent.by
Поиск
Логин:  Регистрация
Пароль:

Клад / Hoard (2023) WEB-DL 1080p | MVO

download Скачать торрент-файл   magnet Магнитная ссылка Размер: 9.57 GB Раздают: 6 Качают: 0 Добавлен: il68k 2024-06-25 14:34
Пиры будут получены из сети DHT
Последний сидер был замечен сегодня в 17:38
Цитата:
Клад / Hoard (2023) WEB-DL 1080p
Производство: Великобритания / Anti-Worlds, BBC Films, Delaval Film, Erebus Pictures Жанр: драма Режиссер: Луна Кармун Актеры: Paul Bassett, Tim Bowie, Джеймс Купер, Ceara Coveney, Сара Роуз Дентон, Набил Элухаби, Сандра Хейл, Deba Hekmat, Erin Jemotte, Sam John Описание: Картина о девушке Марии, её взаимоотношениях с матерью и загадочным Майклом. Майкл вдохновляет ее пересмотреть свои детские воспоминания и страсти, которые она подавила. Действие происходит в 90-х годах прошлого века. Релиз от: RGB Продолжительность: 02:06:16 Качество видео: WEB-DL 1080p Перевод: Многоголосый любительский (RGB) Язык озвучки: Русский, Английский Субтитры: Английские Видео: AVC/H.264, 1916x1076, ~10.1 Mbps Аудио 1: AC3, 6 ch, 384 Kbps, Русский Аудио 2: AC3, 6 ch, 384 Kbps, Английский Семпл
[+] MediaInfo
General
Unique ID                   : 334961538892742220735271593482743514272 (0xFBFF3EEC8FFB50439563DB5BD5D904A0)
Complete name               : E:\RGB\Hoard.2023.1080p.iT.WEB-DL.DD5.1.H.264-NOTLIKEUS-RGB.mkv
Format                      : Matroska
Format version              : Version 4
File size                   : 9.57 GiB
Duration                    : 2 h 6 min
Overall bit rate            : 10.9 Mb/s
Frame rate                  : 24.000 FPS
Movie name                  : RGB
Encoded date                : 2024-06-24 20:24:57 UTC
Writing application         : mkvmerge v82.0 ('I'm The President') 64-bit
Writing library             : libebml v1.4.5 + libmatroska v1.7.1

Video
ID                          : 1
Format                      : AVC
Format/Info                 : Advanced Video Codec
Format profile              : High@L4
Format settings             : CABAC / 4 Ref Frames
Format settings, CABAC      : Yes
Format settings, Reference  : 4 frames
Format settings, Slice coun : 8 slices per frame
Codec ID                    : V_MPEG4/ISO/AVC
Duration                    : 2 h 6 min
Bit rate                    : 10.1 Mb/s
Width                       : 1 916 pixels
Height                      : 1 076 pixels
Display aspect ratio        : 16:9
Frame rate mode             : Constant
Frame rate                  : 24.000 FPS
Color space                 : YUV
Chroma subsampling          : 4:2:0
Bit depth                   : 8 bits
Scan type                   : Progressive
Bits/(Pixel*Frame)          : 0.204
Stream size                 : 8.89 GiB (93%)
Title                       : NOTLIKEUS
Language                    : English
Default                     : Yes
Forced                      : No
Color range                 : Limited
Color primaries             : BT.709
Transfer characteristics    : BT.709
Matrix coefficients         : BT.709

Audio #1
ID                          : 2
Format                      : AC-3
Format/Info                 : Audio Coding 3
Commercial name             : Dolby Digital
Codec ID                    : A_AC3
Duration                    : 2 h 6 min
Bit rate mode               : Constant
Bit rate                    : 384 kb/s
Channel(s)                  : 6 channels
Channel layout              : L R C LFE Ls Rs
Sampling rate               : 48.0 kHz
Frame rate                  : 31.250 FPS (1536 SPF)
Compression mode            : Lossy
Stream size                 : 347 MiB (4%)
Title                       : MVO 
Language                    : Russian
Service kind                : Complete Main
Default                     : Yes
Forced                      : No
Dialog Normalization        : -27 dB
compr                       : -0.28 dB
cmixlev                     : -3.0 dB
surmixlev                   : -3 dB
mixlevel                    : 285 dB
roomtyp                     : 3
ltrtcmixlev                 : -3.0 dB
ltrtsurmixlev               : -3.0 dB
lorocmixlev                 : -3.0 dB
lorosurmixlev               : -3.0 dB
dialnorm_Average            : -27 dB
dialnorm_Minimum            : -27 dB
dialnorm_Maximum            : -27 dB

Audio #2
ID                          : 3
Format                      : AC-3
Format/Info                 : Audio Coding 3
Commercial name             : Dolby Digital
Codec ID                    : A_AC3
Duration                    : 2 h 6 min
Bit rate mode               : Constant
Bit rate                    : 384 kb/s
Channel(s)                  : 6 channels
Channel layout              : L R C LFE Ls Rs
Sampling rate               : 48.0 kHz
Frame rate                  : 31.250 FPS (1536 SPF)
Compression mode            : Lossy
Stream size                 : 347 MiB (4%)
Title                       : Original
Language                    : English
Service kind                : Complete Main
Default                     : No
Forced                      : No
Dialog Normalization        : -30 dB
compr                       : -0.28 dB
cmixlev                     : -3.0 dB
surmixlev                   : -3 dB
ltrtcmixlev                 : -3.0 dB
ltrtsurmixlev               : -3.0 dB
lorocmixlev                 : -3.0 dB
lorosurmixlev               : -3.0 dB
dialnorm_Average            : -30 dB
dialnorm_Minimum            : -30 dB
dialnorm_Maximum            : -30 dB

Text
ID                          : 4
Format                      : UTF-8
Codec ID                    : S_TEXT/UTF8
Codec ID/Info               : UTF-8 Plain Text
Duration                    : 2 h 5 min
Bit rate                    : 55 b/s
Frame rate                  : 0.215 FPS
Count of elements           : 1619
Stream size                 : 51.1 KiB (0%)
Title                       : SD
Language                    : English
Default                     : No
Forced                      : No
Скриншоты:

Всего файлов в раздаче: 1 
Hoard.2023.1080p.iT.WEB-DL.DD5.1.H.264-NOTLIKEUS-RGB.mkv9.57 GB

Похожие раздачи по запросу - Клад
2024-06-26 magnet Клад / Hoard (2023) WEB-DLRip-AVC | L 2.85 GB ↑ 2 ↓ 0
2024-06-25 magnet Клад / Hoard (2023) WEB-DLRip-AVC | MVO 1.68 GB ↑ 4 ↓ 0

Комментарии


Зарегистрируйтесь чтобы добавить комментарий
Торрент клиент
byTorrent - программа для загрузки торрент-файлов.

Скачать byTorrent.exe (1,5 МБ)

Скачать byTorrent.zip (0,6 МБ)

Поддержи torrent.by
российских рублей
(300 российских рублей это 4$)

Обратная связь rss

End game ©