↑↓torrent.by
Поиск
Логин:  Регистрация
Пароль:

Клад / Hoard (2023) WEB-DLRip-AVC | MVO

download Скачать торрент-файл   magnet Магнитная ссылка Размер: 1.68 GB Раздают: 3 Качают: 0 Добавлен: il68k 2024-06-25 15:29
Пиры будут получены из сети DHT
Последний сидер был замечен сегодня в 16:23
Клад / Hoard (2023) WEB-DLRip-AVC
Производство: Великобритания / Anti-Worlds, BBC Films, Delaval Film, Erebus Pictures Жанр: драма Режиссер: Луна Кармун Актеры: Paul Bassett, Tim Bowie, Джеймс Купер, Ceara Coveney, Сара Роуз Дентон, Набил Элухаби, Сандра Хейл, Deba Hekmat, Erin Jemotte, Sam John Описание: Картина о девушке Марии, её взаимоотношениях с матерью и загадочным Майклом. Майкл вдохновляет ее пересмотреть свои детские воспоминания и страсти, которые она подавила. Действие происходит в 90-х годах прошлого века. Релиз от: RGB Продолжительность: 02:06:16 Качество видео: WEB-DLRip-AVC Перевод: Многоголосый любительский (RGB) Язык озвучки: Русский Субтитры: Английские Видео: AVC/H.264, 720x404, ~1517 Kbps Аудио: AC3, 6 ch, 384 Kbps, Русский
[+] MediaInfo
General
Unique ID                   : 75900840951226529149140892786697602710 (0x3919F86198DD7CF5B6349733A65A8696)
Complete name               : E:\RGB\Hoard.2023.WEB-RGB.mkv
Format                      : Matroska
Format version              : Version 4
File size                   : 1.68 GiB
Duration                    : 2 h 6 min
Overall bit rate            : 1 902 kb/s
Frame rate                  : 24.000 FPS
Movie name                  : RGB
Encoded date                : 2024-06-24 21:27:23 UTC
Writing application         : mkvmerge v82.0 ('I'm The President') 64-bit
Writing library             : libebml v1.4.5 + libmatroska v1.7.1

Video
ID                          : 1
Format                      : AVC
Format/Info                 : Advanced Video Codec
Format profile              : High@L4.1
Format settings             : CABAC / 10 Ref Frames
Format settings, CABAC      : Yes
Format settings, Reference  : 10 frames
Codec ID                    : V_MPEG4/ISO/AVC
Duration                    : 2 h 6 min
Bit rate                    : 1 517 kb/s
Width                       : 720 pixels
Height                      : 404 pixels
Display aspect ratio        : 16:9
Frame rate mode             : Constant
Frame rate                  : 24.000 FPS
Color space                 : YUV
Chroma subsampling          : 4:2:0
Bit depth                   : 8 bits
Scan type                   : Progressive
Bits/(Pixel*Frame)          : 0.217
Stream size                 : 1.34 GiB (80%)
Title                       : RGB
Language                    : English
Default                     : Yes
Forced                      : No

Audio
ID                          : 2
Format                      : AC-3
Format/Info                 : Audio Coding 3
Commercial name             : Dolby Digital
Codec ID                    : A_AC3
Duration                    : 2 h 6 min
Bit rate mode               : Constant
Bit rate                    : 384 kb/s
Channel(s)                  : 6 channels
Channel layout              : L R C LFE Ls Rs
Sampling rate               : 48.0 kHz
Frame rate                  : 31.250 FPS (1536 SPF)
Compression mode            : Lossy
Stream size                 : 347 MiB (20%)
Title                       : MVO 
Language                    : Russian
Service kind                : Complete Main
Default                     : Yes
Forced                      : No
Dialog Normalization        : -27 dB
compr                       : -0.28 dB
cmixlev                     : -3.0 dB
surmixlev                   : -3 dB
mixlevel                    : 285 dB
roomtyp                     : 3
ltrtcmixlev                 : -3.0 dB
ltrtsurmixlev               : -3.0 dB
lorocmixlev                 : -3.0 dB
lorosurmixlev               : -3.0 dB
dialnorm_Average            : -27 dB
dialnorm_Minimum            : -27 dB
dialnorm_Maximum            : -27 dB

Text
ID                          : 3
Format                      : UTF-8
Codec ID                    : S_TEXT/UTF8
Codec ID/Info               : UTF-8 Plain Text
Duration                    : 2 h 5 min
Bit rate                    : 55 b/s
Frame rate                  : 0.215 FPS
Count of elements           : 1619
Stream size                 : 51.1 KiB (0%)
Title                       : SD
Language                    : English
Default                     : No
Forced                      : No
Скриншоты:

Всего файлов в раздаче: 1 
Hoard.2023.WEB-RGB.mkv1.68 GB

Похожие раздачи по запросу - Клад
2024-06-26 magnet Клад / Hoard (2023) WEB-DLRip-AVC | L 2.85 GB ↑ 5 ↓ 0
2024-06-25 magnet Клад / Hoard (2023) WEB-DL 1080p | MVO 9.57 GB ↑ 4 ↓ 1

Комментарии


Зарегистрируйтесь чтобы добавить комментарий
Торрент клиент
byTorrent - программа для загрузки торрент-файлов.

Скачать byTorrent.exe (1,5 МБ)

Скачать byTorrent.zip (0,6 МБ)

Поддержи torrent.by
российских рублей
(300 российских рублей это 4$)

Обратная связь rss

End game ©