↑↓torrent.by
Поиск
Логин:  Регистрация
Пароль:

Stradivari Orchestra - Vivaldi: Le Quattro Stagioni [24-bit Hi-Res] (2024) FLAC

download Скачать торрент-файл   magnet Магнитная ссылка Размер: 454.19 MB Добавлен: 2024-06-25 17:00
Пиры будут получены из сети DHT
Последний сидер был замечен 2024-07-11 14:38
Название: Vivaldi: Le Quattro Stagioni Исполнитель: Stradivari Orchestra, Xiaoming Wang, Maya Weber Композитор: Antonio Vivaldi Год: 2024 Жанр: Classical Издатель (лейбл): Prospero Classical Продолжительность: 00:41:36 Формат/Кодек: FLAC Тип рипа: Tracks Битрейт аудио: Lossless Разрядность: 24 Bit/44,1 kHz
[+] Трек-лист 01. Le Quattro Stagioni, Violin Concerto in E Major, Op. 8 No. 1, RV 269 La primavera I. Allegro (00:03:27) 02. Le Quattro Stagioni, Violin Concerto in E Major, Op. 8 No. 1, RV 269 La primavera II. Largo (00:02:47) 03. Le Quattro Stagioni, Violin Concerto in E Major, Op. 8 No. 1, RV 269 La primavera III. Danza pastorale. Alleg (00:04:28) 04. Le Quattro Stagioni, Violin Concerto in G Minor, Op. 8 No. 2, RV 315 L'estate I. Allegro non molto (00:05:31) 05. Le Quattro Stagioni, Violin Concerto in G Minor, Op. 8 No. 2, RV 315 L'estate II. Adagio e piano – Presto e f (00:02:10) 06. Le Quattro Stagioni, Violin Concerto in G Minor, Op. 8 No. 2, RV 315 L'estate III. Presto (00:03:01) 07. Le Quattro Stagioni, Violin Concerto in F Major, Op. 8 No. 3, RV 293 L'autumno I. Allegro (00:04:51) 08. Le Quattro Stagioni, Violin Concerto in F Major, Op. 8 No. 3, RV 293 L'autumno II. Adagio molto (00:02:41) 09. Le Quattro Stagioni, Violin Concerto in F Major, Op. 8 No. 3, RV 293 L'autumno III. Allegro 'Caccia' (00:03:44) 10. Le Quattro Stagioni, Violin Concerto in F Minor, Op. 8 No. 4, RV 297 L'inverno I. Allegro non molto (00:03:27) 11. Le Quattro Stagioni, Violin Concerto in F Minor, Op. 8 No. 4, RV 297 L'inverno II. Largo (00:01:51) 12. Le Quattro Stagioni, Violin Concerto in F Minor, Op. 8 No. 4, RV 297 L'inverno III. Allegro (00:03:38)
[+] DRM foobar2000 1.5.5 / Замер динамического диапазона (DR) 1.1.1 ------------------------------------------------------------------------------- Анализ: Stradivari Orchestra / Vivaldi: Le Quattro Stagioni -------------------------------------------------------------------------------- DR Пики RMS Продолжительность трека -------------------------------------------------------------------------------- DR13 -0.25 дБ -17.95 дБ 3:27 01-Le Quattro Stagioni, Violin Concerto In E Major, Op. 8 No. 1, Rv 269 "La Primavera": I. Allegro (Live) DR13 -10.84 дБ -28.22 дБ 2:47 02-Le Quattro Stagioni, Violin Concerto In E Major, Op. 8 No. 1, Rv 269 "La Primavera": Ii. Largo (Live) DR14 -0.17 дБ -18.32 дБ 4:28 03-Le Quattro Stagioni, Violin Concerto In E Major, Op. 8 No. 1, Rv 269 "La Primavera": Iii. Danza Pastorale. Allegro (Live) DR12 -0.29 дБ -17.79 дБ 5:31 04-Le Quattro Stagioni, Violin Concerto In G Minor, Op. 8 No. 2, Rv 315 "L'estate": I. Allegro Non Molto (Live) DR14 -2.33 дБ -23.37 дБ 2:10 05-Le Quattro Stagioni, Violin Concerto In G Minor, Op. 8 No. 2, Rv 315 "L'estate": Ii. Adagio E Piano – Presto E Forte (Live) DR10 -0.20 дБ -13.82 дБ 3:01 06-Le Quattro Stagioni, Violin Concerto In G Minor, Op. 8 No. 2, Rv 315 "L'estate": Iii. Presto (Live) DR13 -0.28 дБ -18.34 дБ 4:51 07-Le Quattro Stagioni, Violin Concerto In F Major, Op. 8 No. 3, Rv 293 "L'autumno": I. Allegro (Live) DR10 -11.36 дБ -25.43 дБ 2:41 08-Le Quattro Stagioni, Violin Concerto In F Major, Op. 8 No. 3, Rv 293 "L'autumno": Ii. Adagio Molto (Live) DR12 -0.24 дБ -15.79 дБ 3:44 09-Le Quattro Stagioni, Violin Concerto In F Major, Op. 8 No. 3, Rv 293 "L'autumno": Iii. Allegro 'caccia' (Live) DR12 -0.25 дБ -16.86 дБ 3:27 10-Le Quattro Stagioni, Violin Concerto In F Minor, Op. 8 No. 4, Rv 297 "L'inverno": I. Allegro Non Molto (Live) DR11 -3.19 дБ -19.64 дБ 1:51 11-Le Quattro Stagioni, Violin Concerto In F Minor, Op. 8 No. 4, Rv 297 "L'inverno": Ii. Largo (Live) DR11 -0.27 дБ -16.53 дБ 3:38 12-Le Quattro Stagioni, Violin Concerto In F Minor, Op. 8 No. 4, Rv 297 "L'inverno": Iii. Allegro (Live) -------------------------------------------------------------------------------- Количество треков: 12 Реальные значения DR: DR12 Частота: 48000 Гц Каналов: 2 Разрядность: 24 Битрейт: 1546 кбит/с Кодек: FLAC ================================================================================
Время раздачи: 24/7 (минимум до появления первых 3-5 скачавших, на раздачи не возвращаюсь) Первое правило участника файлообмена: "Скачал сам - дай скачать другому!"

Всего файлов в раздаче: 13 
01. Le Quattro Stagioni, Violin Concerto in E Major, Op. 8 No. 1, RV 269 La primavera I. Allegro.flac38.71 MB
02. Le Quattro Stagioni, Violin Concerto in E Major, Op. 8 No. 1, RV 269 La primavera II. Largo.flac28.61 MB
03. Le Quattro Stagioni, Violin Concerto in E Major, Op. 8 No. 1, RV 269 La primavera III. Danza pastorale. Alleg.flac50.57 MB
04. Le Quattro Stagioni, Violin Concerto in G Minor, Op. 8 No. 2, RV 315 L'estate I. Allegro non molto.flac58.87 MB
05. Le Quattro Stagioni, Violin Concerto in G Minor, Op. 8 No. 2, RV 315 L'estate II. Adagio e piano – Presto e f.flac22.15 MB
06. Le Quattro Stagioni, Violin Concerto in G Minor, Op. 8 No. 2, RV 315 L'estate III. Presto.flac35.34 MB
07. Le Quattro Stagioni, Violin Concerto in F Major, Op. 8 No. 3, RV 293 L'autumno I. Allegro.flac52.21 MB
08. Le Quattro Stagioni, Violin Concerto in F Major, Op. 8 No. 3, RV 293 L'autumno II. Adagio molto.flac28.85 MB
09. Le Quattro Stagioni, Violin Concerto in F Major, Op. 8 No. 3, RV 293 L'autumno III. Allegro 'Caccia'.flac42.09 MB
10. Le Quattro Stagioni, Violin Concerto in F Minor, Op. 8 No. 4, RV 297 L'inverno I. Allegro non molto.flac37.38 MB
Показать все файлы

Комментарии


Зарегистрируйтесь чтобы добавить комментарий
Торрент клиент
byTorrent - программа для загрузки торрент-файлов.

Скачать byTorrent.exe (1,5 МБ)

Скачать byTorrent.zip (0,6 МБ)

Поддержи torrent.by
российских рублей
(300 российских рублей это 4$)

Обратная связь rss

End game ©