↑↓torrent.by
Поиск
Логин:  Регистрация
Пароль:

Julia Severus - Albanesi: Piano Works, Vol. 2 [24-bit Hi-Res] (2024) FLAC

download Скачать торрент-файл   magnet Магнитная ссылка Размер: 1.19 GB Добавлен: 2024-06-25 17:00
Пиры будут получены из сети DHT
Последний сидер был замечен 2024-07-04 21:42
Название: Albanesi: Piano Works, Vol. 2 Исполнитель: Julia Severus Композитор: Carlo Albanesi Год: 2024 Жанр: Classical Издатель (лейбл): Grand Piano Продолжительность: 01:07:25 Формат/Кодек: FLAC Тип рипа: Tracks + booklet Битрейт аудио: Lossless Разрядность: 24 Bit/96 kHz
[+] Трек-лист 01. 6 Romanze senza parole No. 1, Con molto movimento (00:01:34) 02. 6 Romanze senza parole No. 2, Andantino alla Barcarola (00:03:01) 03. 6 Romanze senza parole No. 3, Piuttosto lento e soavemente (00:02:43) 04. 6 Romanze senza parole No. 4, Molto agitato e presto (00:03:54) 05. 6 Romanze senza parole No. 5, Allegro giusto (00:02:17) 06. 6 Romanze senza parole No. 6. Lentamente a modo di Canzone (00:03:12) 07. Piano Sonata No. 6 in C Major I. Con movimento, ma quasi solenne (00:10:20) 08. Piano Sonata No. 6 in C Major II. Scherzo. Presto (00:04:11) 09. Piano Sonata No. 6 in C Major III. Andante quasi romanza. Cantabile sostenuto (00:05:40) 10. Piano Sonata No. 6 in C Major IV. Finale. Allegro marciale (00:06:09) 11. Piano Suite, Op. 60 Ritmi di danze antiche I. Gavotta (00:01:13) 12. Piano Suite, Op. 60 Ritmi di danze antiche II. Sarabanda (00:02:19) 13. Piano Suite, Op. 60 Ritmi di danze antiche III. Pavana (00:02:52) 14. Piano Suite, Op. 60 Ritmi di danze antiche IV. Siciliana (00:02:15) 15. Piano Suite, Op. 60 Ritmi di danze antiche V. Rigodone (00:02:25) 16. 6 Fogli d'Album, Op. 13 No. 1, Trattenimento (00:01:48) 17. 6 Fogli d'Album, Op. 13 No. 2, Ruscelletto (00:01:41) 18. 6 Fogli d'Album, Op. 13 No. 3, Romanza (00:02:14) 19. 6 Fogli d'Album, Op. 13 No. 4, Novelletta (00:02:15) 20. 6 Fogli d'Album, Op. 13 No. 5, Allegramente (00:01:56) 21. 6 Fogli d'Album, Op. 13 No. 6, Meditazione (00:03:26)
[+] DRM foobar2000 1.5.5 / Замер динамического диапазона (DR) 1.1.1 ------------------------------------------------------------------------------- Анализ: Julia Severus / Albanesi: Piano Works, Vol. 2 -------------------------------------------------------------------------------- DR Пики RMS Продолжительность трека -------------------------------------------------------------------------------- DR11 -6.09 дБ -21.60 дБ 1:34 01-6 Romanze Senza Parole: No. 1, Con Molto Movimento DR12 -8.49 дБ -25.27 дБ 3:01 02-6 Romanze Senza Parole: No. 2, Andantino Alla Barcarola DR14 -4.00 дБ -25.09 дБ 2:43 03-6 Romanze Senza Parole: No. 3, Piuttosto Lento E Soavemente DR12 -3.70 дБ -19.78 дБ 3:54 04-6 Romanze Senza Parole: No. 4, Molto Agitato E Presto DR11 -6.52 дБ -22.09 дБ 2:17 05-6 Romanze Senza Parole: No. 5, Allegro Giusto DR12 -11.42 дБ -28.73 дБ 3:12 06-6 Romanze Senza Parole: No. 6. Lentamente A Modo Di Canzone DR15 -0.61 дБ -21.07 дБ 10:20 07-Piano Sonata No. 6 In C Major: I. Con Movimento, Ma Quasi Solenne DR13 -0.70 дБ -18.43 дБ 4:11 08-Piano Sonata No. 6 In C Major: Ii. Scherzo. Presto DR14 -5.56 дБ -25.42 дБ 5:40 09-Piano Sonata No. 6 In C Major: Iii. Andante Quasi Romanza. Cantabile Sostenuto DR13 -0.10 дБ -17.12 дБ 6:09 10-Piano Sonata No. 6 In C Major: Iv. Finale. Allegro Marciale DR14 -3.59 дБ -21.68 дБ 1:13 11-Piano Suite, Op. 60 "Ritmi Di Danze Antiche": I. Gavotta DR12 -8.35 дБ -24.73 дБ 2:19 12-Piano Suite, Op. 60 "Ritmi Di Danze Antiche": Ii. Sarabanda DR16 -5.89 дБ -26.17 дБ 2:52 13-Piano Suite, Op. 60 "Ritmi Di Danze Antiche": Iii. Pavana DR13 -3.93 дБ -24.59 дБ 2:15 14-Piano Suite, Op. 60 "Ritmi Di Danze Antiche": Iv. Siciliana DR14 -4.03 дБ -21.76 дБ 2:25 15-Piano Suite, Op. 60 "Ritmi Di Danze Antiche": V. Rigodone DR16 -4.08 дБ -24.58 дБ 1:48 16-6 Fogli D'album, Op. 13: No. 1, Trattenimento DR12 -7.56 дБ -25.16 дБ 1:41 17-6 Fogli D'album, Op. 13: No. 2, Ruscelletto DR15 -3.41 дБ -24.60 дБ 2:14 18-6 Fogli D'album, Op. 13: No. 3, Romanza DR12 -7.70 дБ -23.57 дБ 2:15 19-6 Fogli D'album, Op. 13: No. 4, Novelletta DR13 -5.19 дБ -21.81 дБ 1:56 20-6 Fogli D'album, Op. 13: No. 5, Allegramente DR14 -7.10 дБ -26.34 дБ 3:26 21-6 Fogli D'album, Op. 13: No. 6, Meditazione -------------------------------------------------------------------------------- Количество треков: 21 Реальные значения DR: DR13 Частота: 96000 Гц Каналов: 2 Разрядность: 24 Битрейт: 2459 кбит/с Кодек: FLAC ================================================================================
Время раздачи: 24/7 (минимум до появления первых 3-5 скачавших, на раздачи не возвращаюсь) Первое правило участника файлообмена: "Скачал сам - дай скачать другому!"

Всего файлов в раздаче: 23 
01. 6 Romanze senza parole No. 1, Con molto movimento.flac27.27 MB
02. 6 Romanze senza parole No. 2, Andantino alla Barcarola.flac51.40 MB
03. 6 Romanze senza parole No. 3, Piuttosto lento e soavemente.flac46.40 MB
04. 6 Romanze senza parole No. 4, Molto agitato e presto.flac69.57 MB
05. 6 Romanze senza parole No. 5, Allegro giusto.flac40.12 MB
06. 6 Romanze senza parole No. 6. Lentamente a modo di Canzone.flac53.06 MB
07. Piano Sonata No. 6 in C Major I. Con movimento, ma quasi solenne.flac188.55 MB
08. Piano Sonata No. 6 in C Major II. Scherzo. Presto.flac78.39 MB
09. Piano Sonata No. 6 in C Major III. Andante quasi romanza. Cantabile sostenuto.flac101.84 MB
10. Piano Sonata No. 6 in C Major IV. Finale. Allegro marciale.flac115.71 MB
Показать все файлы

Похожие раздачи по запросу - Julia
2024-06-14 magnet Julia Duggan - Pannonica [24-bit Hi-Res] (2024) FLAC 452.99 MB ↑ 0 ↓ 0

Комментарии


Зарегистрируйтесь чтобы добавить комментарий
Торрент клиент
byTorrent - программа для загрузки торрент-файлов.

Скачать byTorrent.exe (1,5 МБ)

Скачать byTorrent.zip (0,6 МБ)

Поддержи torrent.by
российских рублей
(300 российских рублей это 4$)

Обратная связь rss

End game ©