↑↓torrent.by
Поиск
Логин:  Регистрация
Пароль:

No Mana - I Contain Flashing Images [24Bit, Hi-Res] (2024) FLAC

download Скачать торрент-файл   magnet Магнитная ссылка Размер: 768.79 MB Добавлен: 2024-06-25 17:00
Пиры будут получены из сети DHT
Последний сидер был замечен 2024-07-11 14:42
No Mana - I Contain Flashing Images (2024) Жанр: Electro-House, Progressive-House Издание: 2024 Monstercat - 742779552624 Источник: ссылка Продолжительность: 00:58:23 Кодек: FLAC 24/48 Битрейт: Lossless|WEB-DL Тип рипа: tracks Треклист: 01. I Contain Flashing Images 02. Solarpunk 03. Falling in Love 04. Digital Friends 05. Roadburn 06. City2City 07. Hopeless 08. Luxor Aeterna 09. Garage17 10. Everlasting 11. Justify 12. Ecstatic and Irresponsible 13. Lost Call 14. Hit the Ground 15. Underwater
[+] Дополнительная информация: Vancouver, British Columbia https://monstercatmedia.bandcamp.com/music https://youtu.be/yr3R6Ezsc6A
[+] Отчёт Замер динамического диапазона: foobar2000 2.0 / Замер динамического диапазона (DR) 1.1.1 Дата отчёта: 2024-06-24 12:30:34 -------------------------------------------------------------------------------- Анализ: Feed Me, No Mana, Bertie Scott / I Contain Flashing Images (1) No Mana, Bertie Scott / I Contain Flashing Images (2) No Mana, Dualistic / I Contain Flashing Images (3) No Mana, Emski / I Contain Flashing Images (4) No Mana, Isis Rose / I Contain Flashing Images (5) No Mana, Leyla Diamondi / I Contain Flashing Images (6) No Mana, Voicians / I Contain Flashing Images (7) No Mana, Vowl., Leyla Diamondi / I Contain Flashing Images (8) No Mana / I Contain Flashing Images (9-14) Sofi, No Mana / I Contain Flashing Images (15) -------------------------------------------------------------------------------- DR Пики RMS Продолжительность трека -------------------------------------------------------------------------------- DR3 0.00 дБ -5.68 дБ 3:44 07-Hopeless DR4 0.00 дБ -5.51 дБ 4:23 14-Hit the Ground DR3 0.00 дБ -5.39 дБ 4:15 12-Ecstatic and Irresponsible DR5 0.00 дБ -7.37 дБ 3:43 10-Everlasting DR4 0.00 дБ -5.89 дБ 4:32 15-Underwater DR4 0.00 дБ -6.26 дБ 4:55 08-Luxor Aeterna DR4 0.00 дБ -6.17 дБ 4:11 11-Justify DR4 0.00 дБ -6.99 дБ 3:38 03-Falling in Love DR14 -3.59 дБ -18.83 дБ 0:30 01-I Contain Flashing Images DR4 0.00 дБ -5.13 дБ 4:00 02-Solarpunk DR4 0.00 дБ -5.92 дБ 3:15 05-Roadburn DR3 0.00 дБ -5.50 дБ 4:01 06-City2City DR4 0.00 дБ -6.38 дБ 4:58 09-Garage17 DR4 0.00 дБ -6.03 дБ 4:38 13-Lost Call DR3 0.00 дБ -5.17 дБ 3:42 04-Digital Friends -------------------------------------------------------------------------------- Количество треков: 15 Реальные значения DR: DR4 Частота: 48000 Гц Каналов: 2 Разрядность: 24 Битрейт: 1954 кбит/с Кодек: FLAC ================================================================================
[+] Отчёт Mi: Format : FLAC Format/Info : Free Lossless Audio Codec File size : 5.54 MiB Duration : 29 s 711 ms Overall bit rate mode : Variable Overall bit rate : 1 566 kb/s Album : I Contain Flashing Images Album/Performer : No Mana Part : 1 Part/Total : 1 Track name : I Contain Flashing Images Track name/Position : 1 Track name/Total : 15 Performer : No Mana Composer : Jordan Orcaz Producer : Monstercat Label : Monstercat Genre : Electro House, Progressive House Recorded date : 2024-05-30 ISRC : CA6D22400214 Copyright : 2024 Monstercat 2024 Monstercat Cover : Yes Cover type : Cover (front) Cover MIME : image/jpeg Comment : https://www.qobuz.com/gb-en/album/i-contain-flashing-images-no-mana/bx8ns0y54olsb PRODUCER : No Mana INVOLVEDPEOPLE : Monstercat, MusicPublisher - No Mana, Producer, MainArtist - Jordan Orcaz, ComposerLyricist ITUNESADVISORY : 1 MEDIATYPE : album UPC : 0742779552624 URL : https://www.qobuz.com/fr-fr/album/i-contain-flashing-images-no-mana/bx8ns0y54olsb Audio Format : FLAC Format/Info : Free Lossless Audio Codec Duration : 29 s 711 ms Bit rate mode : Variable Bit rate : 1 526 kb/s Channel(s) : 2 channels Channel layout : L R Sampling rate : 48.0 kHz Bit depth : 24 bits Compression mode : Lossless Stream size : 5.40 MiB (97%) General Complete name : C:Deemix MusicNo Mana - 2024 - I Contain Flashing Images (24bit-48kHz)�2 - Solarpunk.flac Format : FLAC Format/Info : Free Lossless Audio Codec File size : 54.4 MiB Duration : 3 min 59 s Overall bit rate mode : Variable Overall bit rate : 1 902 kb/s Album : I Contain Flashing Images Album/Performer : No Mana Part : 1 Part/Total : 1 Track name : Solarpunk Track name/Position : 2 Track name/Total : 15 Performer : No Mana Composer : Jordan Orcaz Producer : Monstercat Label : Monstercat Genre : Electro House, Progressive House Recorded date : 2024-05-30 ISRC : CA6D22400206 Copyright : 2024 Monstercat 2024 Monstercat Cover : Yes Cover type : Cover (front) Cover MIME : image/jpeg Comment : 2024 Monstercat - 742779552624 PRODUCER : No Mana INVOLVEDPEOPLE : Monstercat, MusicPublisher - No Mana, Producer, MainArtist - Jordan Orcaz, ComposerLyricist ITUNESADVISORY : 0 MEDIATYPE : album UPC : 0742779552624 URL : https://www.qobuz.com/fr-fr/album/i-contain-flashing-images-no-mana/bx8ns0y54olsb Audio Format : FLAC Format/Info : Free Lossless Audio Codec Duration : 3 min 59 s Bit rate mode : Variable Bit rate : 1 897 kb/s Channel(s) : 2 channels Channel layout : L R Sampling rate : 48.0 kHz Bit depth : 24 bits Compression mode : Lossless Stream size : 54.2 MiB (100%) General Complete name : C:Deemix MusicNo Mana - 2024 - I Contain Flashing Images (24bit-48kHz)�3 - Falling in Love.flac Format : FLAC Format/Info : Free Lossless Audio Codec File size : 45.0 MiB Duration : 3 min 37 s Overall bit rate mode : Variable Overall bit rate : 1 734 kb/s Album : I Contain Flashing Images Album/Performer : No Mana Part : 1 Part/Total : 1 Track name : Falling in Love Track name/Position : 3 Track name/Total : 15 Performer : No Mana / Vowl. / Leyla Diamondi Composer : Jordan Orcaz / NICHOLAS JAMES BARRON / Elpiniki Leyla Constantinidis Producer : Monstercat Label : Monstercat Genre : Electro House, Progressive House Recorded date : 2024-05-30 ISRC : CA6D22400114 Copyright : 2024 Monstercat 2024 Monstercat Cover : Yes Cover type : Cover (front) Cover MIME : image/jpeg Comment : Vancouver, British Columbia PRODUCER : No Mana / Vowl. INVOLVEDPEOPLE : Copyright Control, MusicPublisher - Monstercat, MusicPublisher - No Mana, Producer, MainArtist - Vowl., Producer, MainArtist - Jordan Orcaz, ComposerLyricist - Leyla Diamondi, MainArtist - NICHOLAS JAMES BARRON, ComposerLyricist - Elpiniki Leyla Constantinidis, ComposerLyricist ITUNESADVISORY : 0 MEDIATYPE : album UPC : 0742779552624 URL : https://www.qobuz.com/fr-fr/album/i-contain-flashing-images-no-mana/bx8ns0y54olsb Audio Format : FLAC Format/Info : Free Lossless Audio Codec Duration : 3 min 37 s Bit rate mode : Variable Bit rate : 1 729 kb/s Channel(s) : 2 channels Channel layout : L R Sampling rate : 48.0 kHz Bit depth : 24 bits Compression mode : Lossless Stream size : 44.8 MiB (100%) General Complete name : C:Deemix MusicNo Mana - 2024 - I Contain Flashing Images (24bit-48kHz)�4 - Digital Friends.flac Format : FLAC Format/Info : Free Lossless Audio Codec File size : 51.8 MiB Duration : 3 min 41 s Overall bit rate mode : Variable Overall bit rate : 1 959 kb/s Album : I Contain Flashing Images Album/Performer : No Mana Part : 1 Part/Total : 1 Track name : Digital Friends Track name/Position : 4 Track name/Total : 15 Performer : Sofi / No Mana Composer : Sofia Toufa / Jordan Orcaz / Benjamin David Masters Producer : Monstercat Label : Monstercat Genre : Electro House, Progressive House Recorded date : 2024-05-30 ISRC : CA6D22300551 Copyright : 2024 Monstercat 2024 Monstercat Cover : Yes Cover type : Cover (front) Cover MIME : image/jpeg Comment : https://monstercatmedia.bandcamp.com/music PRODUCER : Sofi / No Mana INVOLVEDPEOPLE : Sofia Toufa, ComposerLyricist - Sofi, Producer, MainArtist - Monstercat, MusicPublisher - No Mana, Producer, MainArtist - Jordan Orcaz, ComposerLyricist - Benjamin David Masters, ComposerLyricist - Ben Masters Publishing, MusicPublisher ITUNESADVISORY : 0 MEDIATYPE : album UPC : 0742779552624 URL : https://www.qobuz.com/fr-fr/album/i-contain-flashing-images-no-mana/bx8ns0y54olsb Audio Format : FLAC Format/Info : Free Lossless Audio Codec Duration : 3 min 41 s Bit rate mode : Variable Bit rate : 1 954 kb/s Channel(s) : 2 channels Channel layout : L R Sampling rate : 48.0 kHz Bit depth : 24 bits Compression mode : Lossless Stream size : 51.6 MiB (100%) General Complete name : C:Deemix MusicNo Mana - 2024 - I Contain Flashing Images (24bit-48kHz)�5 - Roadburn.flac Format : FLAC Format/Info : Free Lossless Audio Codec File size : 44.4 MiB Duration : 3 min 15 s Overall bit rate mode : Variable Overall bit rate : 1 909 kb/s Album : I Contain Flashing Images Album/Performer : No Mana Part : 1 Part/Total : 1 Track name : Roadburn Track name/Position : 5 Track name/Total : 15 Performer : No Mana Composer : Jordan Orcaz Producer : Monstercat Label : Monstercat Genre : Electro House, Progressive House Recorded date : 2024-05-30 ISRC : CA6D22400207 Copyright : 2024 Monstercat 2024 Monstercat Cover : Yes Cover type : Cover (front) Cover MIME : image/jpeg Comment : https://youtu.be/yr3R6Ezsc6A PRODUCER : No Mana INVOLVEDPEOPLE : Monstercat, MusicPublisher - No Mana, Producer, MainArtist - Jordan Orcaz, ComposerLyricist ITUNESADVISORY : 0 MEDIATYPE : album UPC : 0742779552624 URL : https://www.qobuz.com/fr-fr/album/i-contain-flashing-images-no-mana/bx8ns0y54olsb Audio Format : FLAC Format/Info : Free Lossless Audio Codec Duration : 3 min 15 s Bit rate mode : Variable Bit rate : 1 902 kb/s Channel(s) : 2 channels Channel layout : L R Sampling rate : 48.0 kHz Bit depth : 24 bits Compression mode : Lossless Stream size : 44.2 MiB (100%) General Complete name : C:Deemix MusicNo Mana - 2024 - I Contain Flashing Images (24bit-48kHz)�6 - City2City.flac Format : FLAC Format/Info : Free Lossless Audio Codec File size : 53.8 MiB Duration : 4 min 0 s Overall bit rate mode : Variable Overall bit rate : 1 873 kb/s Album : I Contain Flashing Images Album/Performer : No Mana Part : 1 Part/Total : 1 Track name : City2City Track name/Position : 6 Track name/Total : 15 Performer : No Mana Composer : Max Cooke / Erik Belz / Jordan Orcaz / George Henry Morgan Producer : Monstercat Label : Monstercat Genre : Electro House, Progressive House Recorded date : 2024-05-30 ISRC : CA6D22400208 Copyright : 2024 Monstercat 2024 Monstercat Cover : Yes Cover type : Cover (front) Cover MIME : image/jpeg PRODUCER : No Mana INVOLVEDPEOPLE : Copyright Control, MusicPublisher - Max Cooke, ComposerLyricist - Monstercat, MusicPublisher - No Mana, Producer, MainArtist - Erik Belz, ComposerLyricist - Jordan Orcaz, ComposerLyricist - George Henry Morgan, ComposerLyricist - Songs of Spirit One, MusicPublisher ITUNESADVISORY : 0 MEDIATYPE : album UPC : 0742779552624 URL : https://www.qobuz.com/fr-fr/album/i-contain-flashing-images-no-mana/bx8ns0y54olsb Audio Format : FLAC Format/Info : Free Lossless Audio Codec Duration : 4 min 0 s Bit rate mode : Variable Bit rate : 1 868 kb/s Channel(s) : 2 channels Channel layout : L R Sampling rate : 48.0 kHz Bit depth : 24 bits Compression mode : Lossless Stream size : 53.6 MiB (100%) General Complete name : C:Deemix MusicNo Mana - 2024 - I Contain Flashing Images (24bit-48kHz)�7 - Hopeless.flac Format : FLAC Format/Info : Free Lossless Audio Codec File size : 49.4 MiB Duration : 3 min 43 s Overall bit rate mode : Variable Overall bit rate : 1 850 kb/s Album : I Contain Flashing Images Album/Performer : No Mana Part : 1 Part/Total : 1 Track name : Hopeless Track name/Position : 7 Track name/Total : 15 Performer : Feed Me / No Mana / Bertie Scott Composer : Jonathan Gooch / Jordan Orcaz / Bertram James Scott Producer : Monstercat Label : Monstercat Genre : Electro House, Progressive House Recorded date : 2024-05-30 ISRC : CA6D22400209 Copyright : 2024 Monstercat 2024 Monstercat Cover : Yes Cover type : Cover (front) Cover MIME : image/jpeg PRODUCER : Feed Me / No Mana / Bertie Scott INVOLVEDPEOPLE : Feed Me, Producer, MainArtist - Jonathan Gooch, ComposerLyricist - Monstercat, MusicPublisher - No Mana, Producer, MainArtist - Warner Chappell Mus Inc., MusicPublisher - Jordan Orcaz, ComposerLyricist - Bertie Scott, Producer, MainArtist - Bertram James Scott, ComposerLyricist - Hit My Heart Song, MusicPublisher ITUNESADVISORY : 0 MEDIATYPE : album UPC : 0742779552624 URL : https://www.qobuz.com/fr-fr/album/i-contain-flashing-images-no-mana/bx8ns0y54olsb Audio Format : FLAC Format/Info : Free Lossless Audio Codec Duration : 3 min 43 s Bit rate mode : Variable Bit rate : 1 845 kb/s Channel(s) : 2 channels Channel layout : L R Sampling rate : 48.0 kHz Bit depth : 24 bits Compression mode : Lossless Stream size : 49.3 MiB (100%) General Complete name : C:Deemix MusicNo Mana - 2024 - I Contain Flashing Images (24bit-48kHz)�8 - Luxor Aeterna.flac Format : FLAC Format/Info : Free Lossless Audio Codec File size : 61.7 MiB Duration : 4 min 55 s Overall bit rate mode : Variable Overall bit rate : 1 753 kb/s Album : I Contain Flashing Images Album/Performer : No Mana Part : 1 Part/Total : 1 Track name : Luxor Aeterna Track name/Position : 8 Track name/Total : 15 Performer : No Mana / Leyla Diamondi Composer : Jordan Orcaz / Elpiniki Leyla Constantinidis Producer : Monstercat Label : Monstercat Genre : Electro House, Progressive House Recorded date : 2024-05-30 ISRC : CA6D22400215 Copyright : 2024 Monstercat 2024 Monstercat Cover : Yes Cover type : Cover (front) Cover MIME : image/jpeg PRODUCER : No Mana / Leyla Diamondi INVOLVEDPEOPLE : Copyright Control, MusicPublisher - Monstercat, MusicPublisher - No Mana, Producer, MainArtist - Jordan Orcaz, ComposerLyricist - Leyla Diamondi, Producer, MainArtist - Elpiniki Leyla Constantinidis, ComposerLyricist ITUNESADVISORY : 0 MEDIATYPE : album UPC : 0742779552624 URL : https://www.qobuz.com/fr-fr/album/i-contain-flashing-images-no-mana/bx8ns0y54olsb Audio Format : FLAC Format/Info : Free Lossless Audio Codec Duration : 4 min 55 s Bit rate mode : Variable Bit rate : 1 749 kb/s Channel(s) : 2 channels Channel layout : L R Sampling rate : 48.0 kHz Bit depth : 24 bits Compression mode : Lossless Stream size : 61.6 MiB (100%) General Complete name : C:Deemix MusicNo Mana - 2024 - I Contain Flashing Images (24bit-48kHz)�9 - Garage17.flac Format : FLAC Format/Info : Free Lossless Audio Codec File size : 61.2 MiB Duration : 4 min 58 s Overall bit rate mode : Variable Overall bit rate : 1 723 kb/s Album : I Contain Flashing Images Album/Performer : No Mana Part : 1 Part/Total : 1 Track name : Garage17 Track name/Position : 9 Track name/Total : 15 Performer : No Mana Composer : Jordan Orcaz Producer : Monstercat Label : Monstercat Genre : Electro House, Progressive House Recorded date : 2024-05-30 ISRC : CA6D22400210 Copyright : 2024 Monstercat 2024 Monstercat Cover : Yes Cover type : Cover (front) Cover MIME : image/jpeg PRODUCER : No Mana INVOLVEDPEOPLE : Monstercat, MusicPublisher - No Mana, Producer, MainArtist - Jordan Orcaz, ComposerLyricist ITUNESADVISORY : 0 MEDIATYPE : album UPC : 0742779552624 URL : https://www.qobuz.com/fr-fr/album/i-contain-flashing-images-no-mana/bx8ns0y54olsb Audio Format : FLAC Format/Info : Free Lossless Audio Codec Duration : 4 min 58 s Bit rate mode : Variable Bit rate : 1 719 kb/s Channel(s) : 2 channels Channel layout : L R Sampling rate : 48.0 kHz Bit depth : 24 bits Compression mode : Lossless Stream size : 61.1 MiB (100%) General Complete name : C:Deemix MusicNo Mana - 2024 - I Contain Flashing Images (24bit-48kHz)10 - Everlasting.flac Format : FLAC Format/Info : Free Lossless Audio Codec File size : 48.8 MiB Duration : 3 min 42 s Overall bit rate mode : Variable Overall bit rate : 1 839 kb/s Album : I Contain Flashing Images Album/Performer : No Mana Part : 1 Part/Total : 1 Track name : Everlasting Track name/Position : 10 Track name/Total : 15 Performer : No Mana / Emski Composer : Jordan Orcaz / Emma Nicola Berrigan Producer : Monstercat Label : Monstercat Genre : Electro House, Progressive House Recorded date : 2024-05-30 ISRC : CA6D22400211 Copyright : 2024 Monstercat 2024 Monstercat Cover : Yes Cover type : Cover (front) Cover MIME : image/jpeg PRODUCER : No Mana / Emski INVOLVEDPEOPLE : Copyright Control, MusicPublisher - Monstercat, MusicPublisher - No Mana, Producer, MainArtist - Jordan Orcaz, ComposerLyricist - Emski, Producer, MainArtist - Emma Nicola Berrigan, ComposerLyricist ITUNESADVISORY : 0 MEDIATYPE : album UPC : 0742779552624 URL : https://www.qobuz.com/fr-fr/album/i-contain-flashing-images-no-mana/bx8ns0y54olsb Audio Format : FLAC Format/Info : Free Lossless Audio Codec Duration : 3 min 42 s Bit rate mode : Variable Bit rate : 1 834 kb/s Channel(s) : 2 channels Channel layout : L R Sampling rate : 48.0 kHz Bit depth : 24 bits Compression mode : Lossless Stream size : 48.7 MiB (100%) General Complete name : C:Deemix MusicNo Mana - 2024 - I Contain Flashing Images (24bit-48kHz)11 - Justify.flac Format : FLAC Format/Info : Free Lossless Audio Codec File size : 56.5 MiB Duration : 4 min 11 s Overall bit rate mode : Variable Overall bit rate : 1 888 kb/s Album : I Contain Flashing Images Album/Performer : No Mana Part : 1 Part/Total : 1 Track name : Justify Track name/Position : 11 Track name/Total : 15 Performer : No Mana / Voicians Composer : Daniel Voicians / Edwin Beganovic / Jordan Orcaz Producer : Monstercat Label : Monstercat Genre : Electro House, Progressive House Recorded date : 2024-05-30 ISRC : CA6D22300396 Copyright : 2024 Monstercat 2023 Monstercat Cover : Yes Cover type : Cover (front) Cover MIME : image/jpeg PRODUCER : No Mana INVOLVEDPEOPLE : Voicians, FeaturedArtist - Monstercat, MusicPublisher - Daniel Voicians, ComposerLyricist - No Mana, Producer, MainArtist - Edwin Beganovic, ComposerLyricist - Jordan Orcaz, ComposerLyricist ITUNESADVISORY : 0 MEDIATYPE : album UPC : 0742779552624 URL : https://www.qobuz.com/fr-fr/album/i-contain-flashing-images-no-mana/bx8ns0y54olsb Audio Format : FLAC Format/Info : Free Lossless Audio Codec Duration : 4 min 11 s Bit rate mode : Variable Bit rate : 1 883 kb/s Channel(s) : 2 channels Channel layout : L R Sampling rate : 48.0 kHz Bit depth : 24 bits Compression mode : Lossless Stream size : 56.4 MiB (100%) General Complete name : C:Deemix MusicNo Mana - 2024 - I Contain Flashing Images (24bit-48kHz)12 - Ecstatic and Irresponsible.flac Format : FLAC Format/Info : Free Lossless Audio Codec File size : 56.4 MiB Duration : 4 min 15 s Overall bit rate mode : Variable Overall bit rate : 1 857 kb/s Album : I Contain Flashing Images Album/Performer : No Mana Part : 1 Part/Total : 1 Track name : Ecstatic and Irresponsible Track name/Position : 12 Track name/Total : 15 Performer : No Mana / Dualistic Composer : Jordan Orcaz / Andreas Gabriel Ort Producer : Monstercat Label : Monstercat Genre : Electro House, Progressive House Recorded date : 2024-05-30 ISRC : CA6D22400212 Copyright : 2024 Monstercat 2024 Monstercat Cover : Yes Cover type : Cover (front) Cover MIME : image/jpeg PRODUCER : No Mana INVOLVEDPEOPLE : Copyright Control, MusicPublisher - Dualistic, FeaturedArtist - Monstercat, MusicPublisher - No Mana, Producer, MainArtist - Jordan Orcaz, ComposerLyricist - Andreas Gabriel Ort, ComposerLyricist ITUNESADVISORY : 0 MEDIATYPE : album UPC : 0742779552624 URL : https://www.qobuz.com/fr-fr/album/i-contain-flashing-images-no-mana/bx8ns0y54olsb Audio Format : FLAC Format/Info : Free Lossless Audio Codec Duration : 4 min 15 s Bit rate mode : Variable Bit rate : 1 852 kb/s Channel(s) : 2 channels Channel layout : L R Sampling rate : 48.0 kHz Bit depth : 24 bits Compression mode : Lossless Stream size : 56.3 MiB (100%) General Complete name : C:Deemix MusicNo Mana - 2024 - I Contain Flashing Images (24bit-48kHz)13 - Lost Call.flac Format : FLAC Format/Info : Free Lossless Audio Codec File size : 61.7 MiB Duration : 4 min 37 s Overall bit rate mode : Variable Overall bit rate : 1 862 kb/s Album : I Contain Flashing Images Album/Performer : No Mana Part : 1 Part/Total : 1 Track name : Lost Call Track name/Position : 13 Track name/Total : 15 Performer : No Mana Composer : Edwin Beganovic / Jordan Orcaz / Gregg Sgarlata Producer : Monstercat Label : Monstercat Genre : Electro House, Progressive House Recorded date : 2024-05-30 ISRC : CA6D22400203 Copyright : 2024 Monstercat 2024 Monstercat Cover : Yes Cover type : Cover (front) Cover MIME : image/jpeg PRODUCER : No Mana INVOLVEDPEOPLE : Monstercat, MusicPublisher - No Mana, Producer, MainArtist - Edwin Beganovic, ComposerLyricist - Monstercat II, MusicPublisher - Jordan Orcaz, ComposerLyricist - Gregg Sgarlata, ComposerLyricist ITUNESADVISORY : 0 MEDIATYPE : album UPC : 0742779552624 URL : https://www.qobuz.com/fr-fr/album/i-contain-flashing-images-no-mana/bx8ns0y54olsb Audio Format : FLAC Format/Info : Free Lossless Audio Codec Duration : 4 min 37 s Bit rate mode : Variable Bit rate : 1 858 kb/s Channel(s) : 2 channels Channel layout : L R Sampling rate : 48.0 kHz Bit depth : 24 bits Compression mode : Lossless Stream size : 61.5 MiB (100%) General Complete name : C:Deemix MusicNo Mana - 2024 - I Contain Flashing Images (24bit-48kHz)14 - Hit the Ground.flac Format : FLAC Format/Info : Free Lossless Audio Codec File size : 56.5 MiB Duration : 4 min 22 s Overall bit rate mode : Variable Overall bit rate : 1 807 kb/s Album : I Contain Flashing Images Album/Performer : No Mana Part : 1 Part/Total : 1 Track name : Hit the Ground Track name/Position : 14 Track name/Total : 15 Performer : No Mana / Bertie Scott Composer : Jordan Orcaz / Bertram James Scott Producer : Monstercat Label : Monstercat Genre : Electro House, Progressive House Recorded date : 2024-05-30 ISRC : CA6D22400213 Copyright : 2024 Monstercat 2024 Monstercat Cover : Yes Cover type : Cover (front) Cover MIME : image/jpeg PRODUCER : No Mana / Bertie Scott INVOLVEDPEOPLE : Monstercat, MusicPublisher - No Mana, Producer, MainArtist - Jordan Orcaz, ComposerLyricist - Bertie Scott, Producer, MainArtist - Bertram James Scott, ComposerLyricist - Hit My Heart Song, MusicPublisher ITUNESADVISORY : 0 MEDIATYPE : album UPC : 0742779552624 URL : https://www.qobuz.com/fr-fr/album/i-contain-flashing-images-no-mana/bx8ns0y54olsb Audio Format : FLAC Format/Info : Free Lossless Audio Codec Duration : 4 min 22 s Bit rate mode : Variable Bit rate : 1 802 kb/s Channel(s) : 2 channels Channel layout : L R Sampling rate : 48.0 kHz Bit depth : 24 bits Compression mode : Lossless Stream size : 56.4 MiB (100%) General Complete name : C:Deemix MusicNo Mana - 2024 - I Contain Flashing Images (24bit-48kHz)15 - Underwater.flac Format : FLAC Format/Info : Free Lossless Audio Codec File size : 60.6 MiB Duration : 4 min 32 s Overall bit rate mode : Variable Overall bit rate : 1 869 kb/s Album : I Contain Flashing Images Album/Performer : No Mana Part : 1 Part/Total : 1 Track name : Underwater Track name/Position : 15 Track name/Total : 15 Performer : No Mana / Isis Rose Composer : Ben Fox / Robert Campbell / Jordan Orcaz / Isis Rose Campbell Producer : Monstercat Label : Monstercat Genre : Electro House, Progressive House Recorded date : 2024-05-30 ISRC : CA6D22400202 Copyright : 2024 Monstercat 2024 Monstercat Cover : Yes Cover type : Cover (front) Cover MIME : image/jpeg PRODUCER : No Mana INVOLVEDPEOPLE : Ben Fox, ComposerLyricist - Robert Campbell, ComposerLyricist - Monstercat, MusicPublisher - No Mana, Producer, MainArtist - Jordan Orcaz, ComposerLyricist - Isis Rose, FeaturedArtist - Isis Rose Campbell, ComposerLyricist ITUNESADVISORY : 0 MEDIATYPE : album UPC : 0742779552624 URL : https://www.qobuz.com/fr-fr/album/i-contain-flashing-images-no-mana/bx8ns0y54olsb Audio Format : FLAC Format/Info : Free Lossless Audio Codec Duration : 4 min 32 s Bit rate mode : Variable Bit rate : 1 865 kb/s Channel(s) : 2 channels Channel layout : L R Sampling rate : 48.0 kHz Bit depth : 24 bits Compression mode : Lossless Stream size : 60.5 MiB (100%) General Complete name : C:Deemix MusicNo Mana - 2024 - I Contain Flashing Images (24bit-48kHz)Cover.jpg Format : JPEG File size : 1.09 MiB Image Format : JPEG Width : 3 000 pixels Height : 3 000 pixels Color space : YUV Chroma subsampling : 4:4:4 Bit depth : 8 bits Compression mode : Lossy Stream size : 1.09 MiB (100%) ColorSpace_ICC : RGB

Всего файлов в раздаче: 16 
01 - I Contain Flashing Images.flac5.54 MB
02 - Solarpunk.flac54.35 MB
03 - Falling in Love.flac44.96 MB
04 - Digital Friends.flac51.77 MB
05 - Roadburn.flac44.37 MB
06 - City2City.flac53.76 MB
07 - Hopeless.flac49.39 MB
08 - Luxor Aeterna.flac61.72 MB
09 - Garage17.flac61.24 MB
10 - Everlasting.flac48.83 MB
Показать все файлы

Комментарии


Зарегистрируйтесь чтобы добавить комментарий
Торрент клиент
byTorrent - программа для загрузки торрент-файлов.

Скачать byTorrent.exe (1,5 МБ)

Скачать byTorrent.zip (0,6 МБ)

Поддержи torrent.by
российских рублей
(300 российских рублей это 4$)

Обратная связь rss

End game ©