↑↓torrent.by
Поиск
Логин:  Регистрация
Пароль:

Ангел-А / Angel-A (2005) BDRip-AVC от New-Team | D, A, P1

download Скачать торрент-файл   magnet Магнитная ссылка Размер: 2.18 GB Добавлен: 2024-06-25 17:00
Пиры будут получены из сети DHT
Последний сидер был замечен 2024-06-25 17:00
«Самый красивый дар небес!» Страна: Франция Производство: Apipoulaï, Canal+ , Europa Corp., Sofica Europacorp, TF1 Films Productions Жанр: фэнтези, драма, мелодрама, комедия Год выпуска: 2005 Продолжительность: 01:30:38 Перевод: Профессиональный (полное дублирование), Авторский (одноголосый закадровый) Андрей Гаврилов, Любительский (одноголосый закадровый) Вадим Архипов Оригинальная аудиодорожка: Французский Cубтитры: русский Режиссер: Люк Бессон / Luc Besson В ролях: Жамель Деббуз, Ри Расмуссен, Жильбер Мелки, Серж Риабукин, Аким Шир, Эрик Балье, Луи Пора, Венус Бун, Жером Жесдон, Мишель Белло, Мишель Шесно, Оливье Клавери, Соланж Милход, Лоран Жамекур, Франк-Оливье Бонне, Аким Колор, Тони Десканвелль, Григорий Мануков, Ален Зеф, Жан-Марк Монтальто, Жил Милан, Тодд М. Талер, Гаэль Мэриетт... Подробнее об актерах Роли дублировали: Вячеслав Баранов, Мария Овчинникова, Никита Прозоровский, Игорь Тарадайкин, Пётр Иващенко... Описание: 28-летний Андре должен десятки тысяч евро различным бандитам по всему Парижу. Когда подходит срок расплаты, он понимает, что шансов расплатиться — нет. И в полиции, и в американском посольстве ему отказывают в помощи. Но вот, решив покончить с собой, он видит на мосту сногсшибательную красотку в очень маленьком черном платье, которая прыгает в Сену. Андре бросается за ней. Спасенная девушка обещает помочь Андре во всем: она придумывает удивительные способы добывать деньги и помогает решить проблемы с кредиторами. Но тут Андре начинает задаваться вопросом — почему эта восхитительная девушка так старается ради него? Исходник: BDRemux 1080p Тип релиза: BDRip-AVC Контейнер: MKV Видео: 1024x576 (2,35:1), 24,000 кадра/сек, x264 core 138 r2356 ~ 1912 кбит/сек, 0.179 бит/пиксель Аудио: 48 кГц, Dolby Digital AC3 5.1, 448 кбит/сек DUB Аудио: 48 кГц, Dolby Digital AC3 5.1, 448 кбит/сек Андрей Гаврилов Аудио: 48 кГц, Dolby Digital AC3 2.0, 192 кбит/сек Вадим Архипов Аудио: 48 кГц, Dolby Digital AC3 5.1, 448 кбит/сек Французский Субтитры: SoftSub (srt) Оригинальная навигация по главам: есть Раздача от:
[+] MediaInfo Общее Полное имя : Ангел-А.2005.BDRip-AVC__by_AVP_Studio.mkv Формат : Matroska Версия формата : Version 4 Размер файла : 2,18 Гбайт Продолжительность : 1 ч. 30 мин. Общий битрейт : 3 450 Кбит/сек Частота кадров : 24,000 кадра/сек Название фильма : Angel-A.2005.BDRip-AVC__by_AVP_Studio Дата кодирования : 2014-10-01 16:32:17 UTC Программа кодирования : mkvmerge v7.2.0 ('On Every Street') 64bit built on Sep 13 2014 15:52:10 Библиотека кодирования : libebml v1.3.0 + libmatroska v1.4.1 Видео Идентификатор : 1 Формат : AVC Формат/Информация : Advanced Video Codec Профиль формата : High@L4.1 Настройки формата : CABAC / 8 Ref Frames Параметр CABAC формата : Да Параметр RefFrames формата : 8 кадров Идентификатор кодека : V_MPEG4/ISO/AVC Продолжительность : 1 ч. 30 мин. Битрейт : 1 912 Кбит/сек Ширина : 1 024 пикселя Высота : 434 пикселя Соотношение сторон дисплея : 2,35:1 Режим частоты кадров : Постоянный Частота кадров : 24,000 кадра/сек Цветовое пространство : YUV Цветовая субдискретизация : 4:2:0 Битовая глубина : 8 бит Тип развёртки : Прогрессивная Бит/(Пиксели*Кадры) : 0.179 Размер потока : 1,21 Гбайт (55%) Заголовок : Источник BDRemux Библиотека кодирования : x264 core 138 r2356 a1d3d17 Параметры библиотеки кодирования : cabac=1 / ref=8 / deblock=1:-3:-2 / analyse=0x3:0x113 / me=umh / subme=10 / psy=1 / psy_rd=1.00:0.05 / mixed_ref=1 / me_range=32 / chroma_me=1 / trellis=2 / 8x8dct=1 / cqm=0 / deadzone=21,11 / fast_pskip=0 / chroma_qp_offset=-3 / threads=6 / lookahead_threads=1 / sliced_threads=0 / nr=0 / decimate=0 / interlaced=0 / bluray_compat=0 / constrained_intra=0 / bframes=8 / b_pyramid=2 / b_adapt=2 / b_bias=0 / direct=3 / weightb=1 / open_gop=0 / weightp=2 / keyint=240 / keyint_min=24 / scenecut=40 / intra_refresh=0 / rc_lookahead=40 / rc=2pass / mbtree=1 / bitrate=1912 / ratetol=1.0 / qcomp=0.60 / qpmin=0 / qpmax=69 / qpstep=4 / cplxblur=20.0 / qblur=0.5 / ip_ratio=1.40 / aq=1:1.00 Язык : Французский По умолчанию : Да Принудительно : Нет Аудио #1 Идентификатор : 2 Формат : AC-3 Формат/Информация : Audio Coding 3 Коммерческое название : Dolby Digital Идентификатор кодека : A_AC3 Продолжительность : 1 ч. 30 мин. Вид битрейта : Постоянный Битрейт : 448 Кбит/сек Канал(-ы) : 6 каналов Расположение каналов : L R C LFE Ls Rs Частота дискретизации : 48,0 КГц Частота кадров : 31,250 кадров/сек (1536 SPF) Метод сжатия : С потерями Размер потока : 290 Мбайт (13%) Заголовок : Источник BDRemux DUB Язык : Русский По умолчанию : Да Принудительно : Нет Нормализация звука речи : -31 dB cmixlev : -3.0 dB surmixlev : -3 dB dialnorm_Average : -31 dB dialnorm_Minimum : -31 dB dialnorm_Maximum : -31 dB Аудио #2 Идентификатор : 3 Формат : AC-3 Формат/Информация : Audio Coding 3 Коммерческое название : Dolby Digital Идентификатор кодека : A_AC3 Продолжительность : 1 ч. 30 мин. Вид битрейта : Постоянный Битрейт : 448 Кбит/сек Канал(-ы) : 6 каналов Расположение каналов : L R C LFE Ls Rs Частота дискретизации : 48,0 КГц Частота кадров : 31,250 кадров/сек (1536 SPF) Метод сжатия : С потерями Размер потока : 290 Мбайт (13%) Заголовок : Источник BDRemux Андрей Гаврилов Язык : Русский По умолчанию : Нет Принудительно : Нет Нормализация звука речи : -31 dB cmixlev : -3.0 dB surmixlev : -3 dB dialnorm_Average : -31 dB dialnorm_Minimum : -31 dB dialnorm_Maximum : -31 dB Аудио #3 Идентификатор : 4 Формат : AC-3 Формат/Информация : Audio Coding 3 Коммерческое название : Dolby Digital Настройки формата : Dolby Surround Идентификатор кодека : A_AC3 Продолжительность : 1 ч. 30 мин. Вид битрейта : Постоянный Битрейт : 192 Кбит/сек Канал(-ы) : 2 канала Расположение каналов : L R Частота дискретизации : 48,0 КГц Частота кадров : 31,250 кадров/сек (1536 SPF) Метод сжатия : С потерями Размер потока : 124 Мбайт (6%) Заголовок : Источник BDRemux Вадим Архипов Язык : Русский По умолчанию : Нет Принудительно : Нет Нормализация звука речи : -31 dB dsurmod : Dolby Surround encoded dialnorm_Average : -31 dB dialnorm_Minimum : -31 dB dialnorm_Maximum : -31 dB Аудио #4 Идентификатор : 5 Формат : AC-3 Формат/Информация : Audio Coding 3 Коммерческое название : Dolby Digital Идентификатор кодека : A_AC3 Продолжительность : 1 ч. 30 мин. Вид битрейта : Постоянный Битрейт : 448 Кбит/сек Канал(-ы) : 6 каналов Расположение каналов : L R C LFE Ls Rs Частота дискретизации : 48,0 КГц Частота кадров : 31,250 кадров/сек (1536 SPF) Метод сжатия : С потерями Размер потока : 290 Мбайт (13%) Заголовок : Источник BDRemux Язык : Французский По умолчанию : Нет Принудительно : Нет Нормализация звука речи : -31 dB cmixlev : -3.0 dB surmixlev : -3 dB dialnorm_Average : -31 dB dialnorm_Minimum : -31 dB dialnorm_Maximum : -31 dB Текст #1 Идентификатор : 6 Формат : UTF-8 Идентификатор кодека : S_TEXT/UTF8 Идентификатор кодека/Информация : UTF-8 Plain Text Продолжительность : 1 ч. 24 мин. Битрейт : 131 бит/сек Частота кадров : 0,288 кадр/сек Число элементов : 1456 Размер потока : 81,5 КиБ (0%) Заголовок : Источник BDRemux SoftSub (srt) Язык : Русский По умолчанию : Нет Принудительно : Нет Текст #2 Идентификатор : 7 Формат : UTF-8 Идентификатор кодека : S_TEXT/UTF8 Идентификатор кодека/Информация : UTF-8 Plain Text Продолжительность : 1 ч. 24 мин. Битрейт : 84 бит/сек Частота кадров : 0,271 кадр/сек Число элементов : 1371 Размер потока : 51,9 КиБ (0%) Заголовок : Источник BDRemux SoftSub (srt) Язык : Английский По умолчанию : Нет Принудительно : Нет Меню 00:00:00.000 : ru:Understand? 00:08:21.833 : ru:Until Midnight 00:13:30.500 : ru:Help Me 00:21:35.333 : ru:s That What You Want? 00:30:01.708 : ru:A Pledge 00:37:39.375 : ru:Mr. Franck 00:44:27.125 : ru:Take This 00:53:51.416 : ru:You Can Help 01:00:53.625 : ru:Fell Out of the Sky 01:08:26.916 : ru:The Discotheque 01:16:38.000 : ru:Want a Job? 01:22:37.541 : ru:My Name Is Pedro 01:25:34.000 : ru:Horse Racing
[+] Скриншоты

Всего файлов в раздаче: 1 
Ангел-А.2005.BDRip-AVC_[New-team]_by_AVP_Studio.mkv2.18 GB

Похожие раздачи по запросу - Ангел-А
2024-07-08 magnet Ангел мести / Fatum (2023) BDRip от MegaPeer | D 1.46 GB ↑ 0 ↓ 0
2024-07-08 magnet Ангел мести / Fatum (2023) BDRip 1080р от MegaPeer | D 8.18 GB ↑ 0 ↓ 0
2024-07-08 magnet Ангел мести / Fatum (2023) BDRip-AVC от New-Team | D 2.18 GB ↑ 0 ↓ 0
2024-07-08 magnet Ангел мести / Fatum (2023) BDRip 720p от New-Team | D 4.23 GB ↑ 0 ↓ 0
2024-07-08 magnet Ангел мести / Судьба / Fatum (2023) BDRip-AVC от DoMiNo & селезень | D | Akimbo Production 1.45 GB ↑ 0 ↓ 0
2024-07-08 magnet Ангел мести / Судьба / Fatum (2023) BDRip 1080р от DoMiNo & селезень | D | Akimbo Production 5.22 GB ↑ 0 ↓ 0
2024-06-25 magnet Ангел-А / Angel-A (2005) BDRip 720p от New-Team | D, A, P1 2.91 GB ↑ 0 ↓ 0

Комментарии


Зарегистрируйтесь чтобы добавить комментарий
Торрент клиент
byTorrent - программа для загрузки торрент-файлов.

Скачать byTorrent.exe (1,5 МБ)

Скачать byTorrent.zip (0,6 МБ)

Поддержи torrent.by
российских рублей
(300 российских рублей это 4$)

Обратная связь rss

End game ©