↑↓torrent.by
Поиск
Логин:  Регистрация
Пароль:

Пацаны / The Boys [04x01-02 из 08] (2024) WEB-DL 1080p | D | Red Head Sound

download Скачать торрент-файл   magnet Магнитная ссылка Размер: 14.32 GB Добавлен: 2024-06-25 17:00
Пиры будут получены из сети DHT
Последний сидер был замечен 2024-06-25 17:00
Название: Пацаны Оригинальное название: The Boys Год выхода: 2024 Жанр: Фантастика, боевик, комедия, криминал, экранизация Режиссер: Филип Сгриккиа, Джулиан Холмс В ролях: Карл Урбан, Джек Куэйд, Энтони Старр, Эрин Мориарти, Джесси Ашер, Лаз Алонсо, Чейс Кроуфорд, Томер Капон, Карен Фукухара, Нэйтан Митчелл и др. Описание сериала: Действие сериала разворачивается в мире, где существуют супергерои. Именно они являются настоящими звёздами. Их все знают и обожают. Но за идеальным фасадом скрывается гораздо более мрачный мир наркотиков и секса, а большинство героев — в жизни не самые приятные люди. Для контроля за супергероями ЦРУ создаёт специальный отряд, неофициально известный как «Пацаны», суровые члены которого всегда готовы поставить зазнавшегося героя на место самым жестоким способом. Страна: США Студия: Amazon Studios, Original Film, Point Grey Pictures Продолжительность: ~01:00:00 Перевод: Дублированный (неофициальный) Red Head Sound Файл Формат: MKV Качество: WEB-DL (1080p) Видео: 1920x800 (2,40:1), 23,976 fps, AVC (х264), High@L4, ~7882 Kbps avg, 0.214 bit/pixel Аудио RUS: 48 kHz, AC3, 2/0 (L, R) ch, ~192 kbps avg ***Внимание! В переводе присутствует ненормативная лексика!
[+] MediaInfoОбщее Уникальный идентификатор : 149729694288846527446332761730315263227 (0x70A4E3E2CD79A3D996DF86FD53E11CFB) Полное имя : The.Boys.2024.S04E01.WEB-DL.1080p.AMZN.RHS.mkv Формат : Matroska Версия формата : Version 4 Размер файла : 3,67 Гбайт Продолжительность : 1 ч. 5 мин. Режим общего битрейта : Постоянный Общий битрейт : 8 076 Кбит/сек Частота кадров : 23,976 кадра/сек Дата кодирования : 2024-06-18 10:11:55 UTC Программа кодирования : mkvmerge v68.0.0 ('The Curtain') 64-bit Библиотека кодирования : libebml v1.4.2 + libmatroska v1.6.4 Видео Идентификатор : 1 Формат : AVC Формат/Информация : Advanced Video Codec Профиль формата : High@L4 Настройки формата : CABAC / 4 Ref Frames Параметр CABAC формата : Да Параметр RefFrames формата : 4 кадра Идентификатор кодека : V_MPEG4/ISO/AVC Продолжительность : 1 ч. 5 мин. Вид битрейта : Постоянный Битрейт : 7 882 Кбит/сек Номинальный битрейт : 10 000 Кбит/сек Ширина : 1 920 пикселей Высота : 800 пикселей Соотношение сторон дисплея : 2,40:1 Режим частоты кадров : Постоянный Частота кадров : 23,976 (24000/1001) кадра/сек Цветовое пространство : YUV Цветовая субдискретизация : 4:2:0 Битовая глубина : 8 бит Тип развёртки : Прогрессивная Бит/(Пиксели*Кадры) : 0.214 Размер потока : 3,58 Гбайт (98%) Язык : Английский (US) По умолчанию : Да Принудительно : Нет Цветовой диапазон : Limited Основные цвета : BT.709 Характеристики трансфера : BT.709 Коэффициенты матрицы : BT.709 Аудио Идентификатор : 2 Формат : AC-3 Формат/Информация : Audio Coding 3 Коммерческое название : Dolby Digital Идентификатор кодека : A_AC3 Продолжительность : 1 ч. 5 мин. Вид битрейта : Постоянный Битрейт : 192 Кбит/сек Канал(-ы) : 2 канала Расположение каналов : L R Частота дискретизации : 48,0 КГц Частота кадров : 31,250 кадров/сек (1536 SPF) Метод сжатия : С потерями Размер потока : 89,4 Мбайт (2%) Язык : Русский По умолчанию : Да Принудительно : Нет Нормализация звука речи : -31 dB dialnorm_Average : -31 dB dialnorm_Minimum : -31 dB dialnorm_Maximum : -31 dB Меню 00:00:00.000 : en:Studio Logo 00:00:06.000 : en:Previously On 00:01:52.000 : en:Scene 1 00:02:52.000 : en:Scene 2 00:03:51.000 : en:Scene 3 00:04:47.000 : en:Scene 4 00:05:19.000 : en:Scene 5 00:06:59.000 : en:Scene 6 00:07:33.000 : en:Scene 7 00:08:43.000 : en:Scene 8 00:09:50.000 : en:Scene 9 00:10:53.000 : en:Scene 10 00:11:26.000 : en:Scene 11 00:12:04.000 : en:Scene 12 00:12:47.000 : en:Scene 13 00:13:02.000 : en:Scene 14 00:13:04.000 : en:Scene 15 00:13:54.000 : en:Scene 16 00:16:29.000 : en:Title Sequence 00:16:35.000 : en:Scene 17 00:17:19.000 : en:Scene 18 00:18:29.000 : en:Scene 19 00:20:27.000 : en:Scene 20 00:21:46.000 : en:Scene 21 00:22:49.000 : en:Scene 22 00:23:18.000 : en:Scene 23 00:23:56.000 : en:Scene 24 00:24:34.000 : en:Scene 25 00:25:10.000 : en:Scene 26 00:25:42.000 : en:Scene 27 00:26:23.000 : en:Scene 28 00:27:32.000 : en:Scene 29 00:28:26.000 : en:Scene 30 00:30:42.000 : en:Scene 31 00:31:16.000 : en:Scene 32 00:31:31.000 : en:Scene 33 00:33:04.000 : en:Scene 34 00:33:39.000 : en:Scene 35 00:34:29.000 : en:Scene 36 00:39:15.000 : en:Scene 37 00:41:20.000 : en:Scene 38 00:41:40.000 : en:Scene 39 00:42:30.000 : en:Scene 40 00:43:44.000 : en:Scene 41 00:45:33.000 : en:Scene 42 00:46:11.000 : en:Scene 43 00:46:27.000 : en:Scene 44 00:46:50.000 : en:Scene 45 00:47:09.000 : en:Scene 46 00:47:46.000 : en:Scene 47 00:47:51.000 : en:Scene 48 00:48:09.000 : en:Scene 49 00:48:54.000 : en:Scene 50 00:49:26.000 : en:Scene 51 00:50:57.000 : en:Scene 52 00:51:28.000 : en:Scene 53 00:51:55.000 : en:Scene 54 00:53:36.000 : en:Scene 55 00:54:23.000 : en:Scene 56 00:55:17.000 : en:Scene 57 00:56:42.000 : en:Scene 58 00:59:06.000 : en:End Credits
[+] Скриншоты

Всего файлов в раздаче: 4 
The.Boys.2024.S04E01.WEB-DL.1080p.AMZN.RHS.mkv3.67 GB
The.Boys.2024.S04E02.WEB-DL.1080p.AMZN.RHS.mkv3.63 GB
The.Boys.2024.S04E03.WEB-DL.1080p.AMZN.RHS.mkv3.06 GB
The.Boys.2024.S04E04.WEB-DL.1080p.AMZN.RHS.mkv3.96 GB

Похожие раздачи по запросу - Пацаны
Сегодня magnet Пацаны / The Boys [S04] (2024) WEB-DL 1080p | D | Red Head Sound 29.89 GB ↑ 0 ↓ 8
2024-07-20 magnet Пацаны / The Boys [S04] (2024) WEB-DLRip-AVC | HDrezka Studio, NewStudio 7.94 GB ↑ 0 ↓ 0
2024-07-20 magnet Пацаны / The Boys [S04] (2024) WEB-DL 1080p | D, P, P2 37.58 GB ↑ 0 ↓ 28
2024-07-20 magnet Пацаны / The Boys [S04] (2024) UHD WEB-DL-HEVC 2160p | 4K | HDR | D, P, P2 57.88 GB ↑ 0 ↓ 8
2024-07-19 magnet Пацаны / The Boys [S04] (2024) WEBRip от Kerob | L 5.06 GB ↑ 0 ↓ 0
2024-07-19 magnet Пацаны / The Boys [S04] (2024) WEB-DL-HEVC 2160p от Kerob | 4K | HDR | L 65.49 GB ↑ 0 ↓ 5
2024-07-19 magnet Пацаны / The Boys [01-04x01-31 из 32] (2019-2024) WEB-DLRip | Кубик в кубе 25.97 GB ↑ 0 ↓ 1

Комментарии


Зарегистрируйтесь чтобы добавить комментарий
Торрент клиент
byTorrent - программа для загрузки торрент-файлов.

Скачать byTorrent.exe (1,5 МБ)

Скачать byTorrent.zip (0,6 МБ)

Поддержи torrent.by
российских рублей
(300 российских рублей это 4$)

Обратная связь rss

End game ©