↑↓torrent.by
Поиск
Логин:  Регистрация
Пароль:

Миля [01x01-02 из 08] (2024) WEBRip 720p от ExKinoRay

download Скачать торрент-файл   magnet Магнитная ссылка Размер: 1.57 GB Добавлен: 2024-06-25 17:00
Пиры будут получены из сети DHT
Последний сидер был замечен 2024-07-05 18:46
Информация о фильме Название: Миля Год выхода: 2024 Жанр: Комедия, мелодрама Режиссер: Оксана Мафагел В ролях: Карина Зверева, Елизавета Кононова, Ясмина Омерович, Светлана Саягова, Кирилл Снегирев, Константин Плотников, Анна Ичетовкина, Георгий Николаев, Сергей Грузинов, Михаил Коновалов О фильме: После того как 39-летнюю Милю бросает спонсор, она решает, что будет зарабатывать в качестве блогера. Для этого она нанимает двух 20-летних Дашу и Варю, которые знают о раскрутке в соцсетях все. Миля ставит перед девушками задачу — миллион подписчиков к концу месяца. Варя и Даша понимают, что задача практически невыполнимая, но Миля убеждает их, что готова на все и обещает немалый гонорар. Страна: Россия Студия: Медведь, Okko Studios, Место силы Продолжительность: 2 x ~ 00:30:00 Язык: Русский Реклама: Отсутствует Файл Формат: MKV Качество: WEBRip 720p Видео: MPEG-4 AVC, ~ 3500 Кбит/с, 1280x544, 25 кадр/с Звук : AC3, 6 ch, 384 Кбит/с RUS Субтитры: Нет
[+] МИ General Unique ID : 292980214562380312473469287386344310549 (0xDC69EFD4582B39D4036322459F63C715) Complete name : G:Milya.S01.2024.WEB-DL.720p.ExKinoRayMilya.S01.E01.2024.WEB-DL.720p.ExKinoRay.mkv Format : Matroska Format version : Version 4 File size : 921 MiB Duration : 33 min 8 s Overall bit rate : 3 885 kb/s Encoded date : UTC 2024-06-24 08:45:23 Writing application : mkvmerge v56.1.0 ('My Friend') 64-bit Writing library : libebml v1.4.2 + libmatroska v1.6.4 Video ID : 1 Format : AVC Format/Info : Advanced Video Codec Format profile : High@L4.1 Format settings : CABAC / 9 Ref Frames Format settings, CABAC : Yes Format settings, Reference frames : 9 frames Codec ID : V_MPEG4/ISO/AVC Duration : 33 min 8 s Bit rate : 3 500 kb/s Width : 1 280 pixels Height : 544 pixels Display aspect ratio : 2.35:1 Frame rate mode : Constant Frame rate : 25.000 FPS Color space : YUV Chroma subsampling : 4:2:0 Bit depth : 8 bits Scan type : Progressive Bits/(Pixel*Frame) : 0.201 Stream size : 829 MiB (90%) Writing library : x264 core 146 r2538 121396c Encoding settings : cabac=1 / ref=9 / deblock=1:-3:-3 / analyse=0x3:0x113 / me=umh / subme=11 / psy=1 / psy_rd=1.00:0.02 / mixed_ref=1 / me_range=32 / chroma_me=1 / trellis=2 / 8x8dct=1 / cqm=0 / deadzone=21,11 / fast_pskip=1 / chroma_qp_offset=-3 / threads=24 / lookahead_threads=8 / sliced_threads=0 / nr=0 / decimate=0 / interlaced=0 / bluray_compat=0 / constrained_intra=0 / bframes=10 / b_pyramid=2 / b_adapt=2 / b_bias=0 / direct=3 / weightb=1 / open_gop=0 / weightp=2 / keyint=250 / keyint_min=25 / scenecut=40 / intra_refresh=0 / rc_lookahead=60 / rc=2pass / mbtree=1 / bitrate=3500 / ratetol=1.0 / qcomp=0.60 / qpmin=0 / qpmax=69 / qpstep=4 / cplxblur=20.0 / qblur=0.5 / vbv_maxrate=14000 / vbv_bufsize=14000 / nal_hrd=none / filler=0 / ip_ratio=1.40 / aq=3:1.40 Language : Russian Default : Yes Forced : No Color range : Limited Color primaries : BT.709 Transfer characteristics : BT.709 Matrix coefficients : BT.709 Audio ID : 2 Format : AC-3 Format/Info : Audio Coding 3 Commercial name : Dolby Digital Codec ID : A_AC3 Duration : 33 min 8 s Bit rate mode : Constant Bit rate : 384 kb/s Channel(s) : 6 channels Channel layout : L R C LFE Ls Rs Sampling rate : 48.0 kHz Frame rate : 31.250 FPS (1536 SPF) Compression mode : Lossy Stream size : 91.0 MiB (10%) Language : Russian Service kind : Complete Main Default : Yes Forced : No
[+] Скриншоты
Релиз от:

Всего файлов в раздаче: 2 
Milya.S01.E01.2024.WEB-DL.720p.ExKinoRay.mkv920.91 MB
Milya.S01.E02.2024.WEB-DL.720p.ExKinoRay.mkv684.61 MB

Похожие раздачи по запросу - Миля
2024-07-10 magnet Миля [S01] (2024) WEBRip-HEVC 2160p от ExKinoRay | 4K | SDR 18.31 GB ↑ 0 ↓ 0
2024-07-10 magnet Миля [S01] (2024) WEBRip 720p от ExKinoRay 5.83 GB ↑ 0 ↓ 0
2024-07-10 magnet Миля [S01] (2024) WEBRip-AVC от Generalfilm | КПК 973.97 MB ↑ 0 ↓ 0
2024-07-10 magnet Миля [S01] (2024) WEBRip от Files-х 2.98 GB ↑ 0 ↓ 0
2024-07-09 magnet Миля [S01] (2024) WEBRip-AVC от Files-x 2.98 GB ↑ 0 ↓ 0
2024-07-09 magnet Миля [01x01-07 из 08] (2024) WEBRip-HEVC 2160p от ExKinoRay | 4K | SDR 14.35 GB ↑ 0 ↓ 0
2024-07-09 magnet Миля [01х01-07 из 08] (2024) WEBRip-AVC от Files-x 2.57 GB ↑ 0 ↓ 0

Комментарии


Зарегистрируйтесь чтобы добавить комментарий
Торрент клиент
byTorrent - программа для загрузки торрент-файлов.

Скачать byTorrent.exe (1,5 МБ)

Скачать byTorrent.zip (0,6 МБ)

Поддержи torrent.by
российских рублей
(300 российских рублей это 4$)

Обратная связь rss

End game ©