↑↓torrent.by
Поиск
Логин:  Регистрация
Пароль:

Падение империи / Гражданская война / Civil War (2024) WEB-DLRip 720p от DoMiNo & селезень | D | Пифагор

download Скачать торрент-файл   magnet Магнитная ссылка Размер: 3.02 GB Добавлен: 2024-06-25 17:00
Пиры будут получены из сети DHT
Последний сидер был замечен 2024-07-03 23:04
Информация о фильме Название: Падение империи / Гражданская война Оригинальное название: Civil War Год выпуска: 2024 Жанр: боевик, драма Режиссер: Алекс Гарленд / Alex Garland В ролях: Кирстен Данст, Вагнер Моура, Кейли Спейни, Стивен Хендерсон, Соноя Мидзуно, Ник Офферман, Джефферсон Уайт, Хуани Фелиз, Нельсон Ли, Эдмунд Донован О фильме: Национальная гвардия Калифорнии и Техаса при поддержке боевой техники и авиации штурмуют столицу. Белый дом вот-вот падет. Группа журналистов пытается добраться до пылающего Вашингтона, чтобы взять последнее интервью у президента некогда Соединенных Штатов Америки. Но в стране, где царит хаос, нет ничего дороже литра бензина и ничего дешевле, чем человеческая жизнь. Выпущено: США, Великобритания / DNA Films, IPR.VC, A24 Продолжительность: 01:48:45 Перевод: Профессиональный (полное дублирование) | Пифагор Субтитры: Русские (Forced, Full), английские, испанские Файл Формат: Matroska Качество: WEB-DLRip 720p | Исх.Civil.War.2024.2160p.AMZN.WEB-DL.DDP5.1.Atmos.H.265-FLUX Видео: 1280x692 at 23.976 fps, x264@L4.1, ~3074 kbps Аудио 1: AC3, 6 ch, ~448 kbps - | Русский | | Пифагор Аудио 2: AC3, 6 ch, ~448 kbps - | Английский | | Original Формат субтитров: softsub (SRT) ***Рип от: -=DoMiNo=-
[+] M/IGeneral Unique ID : 258413732305898438214025108472928360794 (0xC268ACAC9D2B2FD64C9357EEE717595A) Complete name : G:Civil.War.2024.DUB.WEB-DLRip.720p.x264.seleZen.mkv Format : Matroska Format version : Version 4 File size : 3.02 GiB Duration : 1 h 48 min Overall bit rate : 3 972 kb/s Frame rate : 23.976 FPS Movie name : Civil.War.2024.DUB.WEB-DLRip.720p.x264.seleZen Encoded date : 2024-06-25 06:54:08 UTC Writing application : mkvmerge v85.0 ('Shame For You') 64-bit Writing library : libebml v1.4.5 + libmatroska v1.7.1 Cover : Yes Attachments : cover.jpg / small_cover.jpg Video ID : 1 Format : AVC Format/Info : Advanced Video Codec Format profile : High@L4.1 Format settings : CABAC / 5 Ref Frames Format settings, CABAC : Yes Format settings, Reference : 5 frames Codec ID : V_MPEG4/ISO/AVC Duration : 1 h 48 min Bit rate : 3 074 kb/s Width : 1 280 pixels Height : 692 pixels Display aspect ratio : 1.85:1 Frame rate mode : Constant Frame rate : 23.976 (24000/1001) FPS Color space : YUV Chroma subsampling : 4:2:0 Bit depth : 8 bits Scan type : Progressive Bits/(Pixel*Frame) : 0.145 Stream size : 2.34 GiB (77%) Title : -=DoMiNo=- Writing library : x264 core 164 r3191 -DoMiNo Encoding settings : cabac=1 / ref=5 / deblock=1:-1:-1 / analyse=0x3:0x133 / me=umh / subme=10 / psy=1 / psy_rd=1.00:0.00 / mixed_ref=1 / me_range=32 / chroma_me=1 / trellis=2 / 8x8dct=1 / cqm=0 / deadzone=21,11 / fast_pskip=0 / chroma_qp_offset=-2 / threads=22 / lookahead_threads=5 / sliced_threads=0 / nr=0 / decimate=1 / interlaced=0 / bluray_compat=0 / constrained_intra=0 / bframes=10 / b_pyramid=2 / b_adapt=2 / b_bias=0 / direct=3 / weightb=1 / open_gop=0 / weightp=2 / keyint=240 / keyint_min=23 / scenecut=40 / intra_refresh=0 / rc_lookahead=60 / rc=crf / mbtree=0 / crf=18.0 / qcomp=0.60 / qpmin=0 / qpmax=69 / qpstep=4 / vbv_maxrate=50000 / vbv_bufsize=62500 / crf_max=0.0 / nal_hrd=none / filler=0 / ip_ratio=1.40 / pb_ratio=1.30 / aq=1:0.90 Language : English Default : Yes Forced : No Audio #1 ID : 2 Format : AC-3 Format/Info : Audio Coding 3 Commercial name : Dolby Digital Codec ID : A_AC3 Duration : 1 h 48 min Bit rate mode : Constant Bit rate : 448 kb/s Channel(s) : 6 channels Channel layout : L R C LFE Ls Rs Sampling rate : 48.0 kHz Frame rate : 31.250 FPS (1536 SPF) Compression mode : Lossy Stream size : 348 MiB (11%) Title : Dub -Пифагор Language : Russian Service kind : Complete Main Default : Yes Forced : No Dialog Normalization : -31 dB cmixlev : -3.0 dB surmixlev : -6 dB dialnorm_Average : -31 dB dialnorm_Minimum : -31 dB dialnorm_Maximum : -31 dB Audio #2 ID : 3 Format : AC-3 Format/Info : Audio Coding 3 Commercial name : Dolby Digital Codec ID : A_AC3 Duration : 1 h 48 min Bit rate mode : Constant Bit rate : 448 kb/s Channel(s) : 6 channels Channel layout : L R C LFE Ls Rs Sampling rate : 48.0 kHz Frame rate : 31.250 FPS (1536 SPF) Compression mode : Lossy Stream size : 348 MiB (11%) Language : English Service kind : Complete Main Default : No Forced : No Dialog Normalization : -31 dB cmixlev : -4.5 dB surmixlev : -6 dB dialnorm_Average : -31 dB dialnorm_Minimum : -31 dB dialnorm_Maximum : -31 dB Text #1 ID : 4 Format : UTF-8 Codec ID : S_TEXT/UTF8 Codec ID/Info : UTF-8 Plain Text Duration : 1 h 16 min Bit rate : 0 b/s Frame rate : 0.002 FPS Count of elements : 11 Stream size : 312 Bytes (0%) Title : Forced Language : Russian Default : No Forced : No Text #2 ID : 5 Format : UTF-8 Codec ID : S_TEXT/UTF8 Codec ID/Info : UTF-8 Plain Text Duration : 1 h 42 min Bit rate : 55 b/s Frame rate : 0.175 FPS Count of elements : 1077 Stream size : 41.5 KiB (0%) Title : Full Language : Russian Default : No Forced : No Text #3 ID : 6 Format : UTF-8 Codec ID : S_TEXT/UTF8 Codec ID/Info : UTF-8 Plain Text Duration : 1 h 39 min Bit rate : 34 b/s Frame rate : 0.165 FPS Count of elements : 989 Stream size : 25.4 KiB (0%) Language : English (US) Default : No Forced : No Text #4 ID : 7 Format : UTF-8 Codec ID : S_TEXT/UTF8 Codec ID/Info : UTF-8 Plain Text Duration : 1 h 40 min Bit rate : 39 b/s Frame rate : 0.189 FPS Count of elements : 1139 Stream size : 28.6 KiB (0%) Title : SDH Language : English (US) Default : No Forced : No Text #5 ID : 8 Format : UTF-8 Codec ID : S_TEXT/UTF8 Codec ID/Info : UTF-8 Plain Text Duration : 1 h 48 min Bit rate : 32 b/s Frame rate : 0.143 FPS Count of elements : 928 Stream size : 25.9 KiB (0%) Title : Latin American Language : Spanish (Latin America) Default : No Forced : No Menu 00:00:00.000 : en:Chapter 01 00:14:27.409 : en:Chapter 02 00:19:16.281 : en:Chapter 03 00:28:41.304 : en:Chapter 04 00:44:34.341 : en:Chapter 05 00:56:47.866 : en:Chapter 06 01:12:51.329 : en:Chapter 07 01:22:38.249 : en:Chapter 08 01:33:07.921 : en:Chapter 09 01:41:07.150 : en:Chapter 10
Релиз: Присоединяйся к: Кликай на баннеры.

Всего файлов в раздаче: 1 
Civil.War.2024.DUB.WEB-DLRip.720p.x264.seleZen.mkv3.02 GB

Похожие раздачи по запросу - Падение
2024-07-13 magnet Падение империи / Гражданская война / Civil War (2024) BDRip 1080p от Generalfilm | D 6.57 GB ↑ 0 ↓ 6
2024-07-11 magnet Падение империи / Гражданская война / Civil War (2024) BDRip-HEVC 1080p от HEVC-CLUB | D 4.64 GB ↑ 0 ↓ 0
2024-07-10 magnet Падение империи / Гражданская война / Civil War (2024) BDRip-HEVC 1080p от RIPS CLUB | D, P2 6.39 GB ↑ 0 ↓ 2
2024-07-07 magnet Падение империи / Гражданская война / Civil War (2024) HDRip-AVC от ExKinoRay | D | Пифагор 744.00 MB ↑ 0 ↓ 0
2024-07-06 magnet Падение империи / Civil War (2024) UHD BDRemux 2160p | 4K | HDR10 | Dolby Vision | D | Пифагор 67.89 GB ↑ 0 ↓ 1
2024-07-06 magnet Падение империи / Гражданская война / Civil War (2024) BDRemux 1080p | D, P2 | Пифагор, HDrezka Studio, ViruseProject 25.75 GB ↑ 0 ↓ 3
2024-07-06 magnet Падение империи / Гражданская война / Civil War (2024) BDRip 1080p от ExKinoRay | D, P, P2 13.90 GB ↑ 0 ↓ 0

Комментарии


Зарегистрируйтесь чтобы добавить комментарий
Торрент клиент
byTorrent - программа для загрузки торрент-файлов.

Скачать byTorrent.exe (1,5 МБ)

Скачать byTorrent.zip (0,6 МБ)

Поддержи torrent.by
российских рублей
(300 российских рублей это 4$)

Обратная связь rss

End game ©