↑↓torrent.by
Поиск
Логин:  Регистрация
Пароль:

Фуриоса: Хроники Безумного Макса / Furiosa: A Mad Max Saga (2024) WEB-DLRip от AR-Team | A | Яроцкий

download Скачать торрент-файл   magnet Магнитная ссылка Размер: 2.19 GB Раздают: 0 Качают: 2 Добавлен: temaxa 2024-06-25 20:21
Пиры будут получены из сети DHT
Последний сидер был замечен сегодня в 21:34
Фуриоса: Хроники Безумного Макса / Furiosa: A Mad Max Saga (2024) WEB-DLRip
Производство: Австралия / Warner Bros., Kennedy Miller Mitchell Жанр: фантастика, боевик Режиссер: Джордж Миллер Актеры: Крис Хемсворт, Аня Тейлор-Джой, Алила Браун, Том Бёрк, Нэйтан Джонс, Джош Хелман, Чарли Фрейзер, Лейчи Халм, Джон Ховард, Джордж Шевцов Описание: История похищения юной воительницы Фуриосы из Зелёных Земель, в результате которого девушка попадает в руки орды байкеров под предводительством Военачальника Дементуса. Пробираясь через Пустошь, они натыкаются на Цитадель, которой управляет Бессмертный Джо, и пока два тирана борются за господство, Фуриосе предстоит пережить множество испытаний, пытаясь найти путь домой. Рейтинг MPAA: R (лицам до 17 лет обязательно присутствие взрослого) Релиз от: AR-Team Продолжительность: 02:28:11 Качество видео: WEB-DLRip Перевод: Авторский (М. Яроцкий | 18+) Язык озвучки: Русский Субтитры: Русские, Английские (Full, SDH) Видео: Xvid, 720x304, ~1714 Kbps Аудио: AC3, 6 ch, 384 Kbps
[+] MediaInfo:
General
Complete name                  : Furiosa.A.Mad.Max.Saga.2024.AVO.WEB-DLRip-AR-Team.avi
Format                         : AVI
Format/Info                    : Audio Video Interleave
Format profile                 : OpenDML
Format settings                : BitmapInfoHeader / WaveFormatEx
File size                      : 2.18 GiB
Duration                       : 2 h 28 min
Overall bit rate               : 2 111 kb/s
Frame rate                     : 23.976 FPS
Writing application            : VirtualDubMod 1.5.10.3 | (build 2550/release)
Writing library                : VirtualDubMod build 2550/release

Video
ID                             : 0
Format                         : MPEG-4 Visual
Format profile                 : Advanced Simple@L5
Format settings                : BVOP1 / Custom Matrix
Format settings, BVOP          : 1
Format settings, QPel          : No
Format settings, GMC           : No warppoints
Format settings, Matrix        : Custom
Codec ID                       : XVID
Codec ID/Hint                  : XviD
Duration                       : 2 h 28 min
Bit rate                       : 1 715 kb/s
Width                          : 720 pixels
Height                         : 304 pixels
Display aspect ratio           : 2.35:1
Frame rate                     : 23.976 (24000/1001) FPS
Color space                    : YUV
Chroma subsampling             : 4:2:0
Bit depth                      : 8 bits
Scan type                      : Progressive
Compression mode               : Lossy
Bits/(Pixel*Frame)             : 0.327
Stream size                    : 1.78 GiB (81%)
Writing library                : XviD 73

Audio
ID                             : 1
Format                         : AC-3
Format/Info                    : Audio Coding 3
Commercial name                : Dolby Digital
Codec ID                       : 2000
Duration                       : 2 h 28 min
Bit rate mode                  : Constant
Bit rate                       : 384 kb/s
Channel(s)                     : 6 channels
Channel layout                 : L R C LFE Ls Rs
Sampling rate                  : 48.0 kHz
Frame rate                     : 31.250 FPS (1536 SPF)
Compression mode               : Lossy
Stream size                    : 407 MiB (18%)
Alignment                      : Split across interleaves
Interleave, duration           : 42  ms (1.00 video frame)
Interleave, preload duration   : 500  ms
Service kind                   : Complete Main
Dialog Normalization           : -31 dB
cmixlev                        : -3.0 dB
surmixlev                      : -3 dB
dialnorm_Average               : -31 dB
dialnorm_Minimum               : -31 dB
dialnorm_Maximum               : -31 dB
Скриншоты:

Всего файлов в раздаче: 4 
Furiosa.A.Mad.Max.Saga.2024.AVO.WEB-DLRip-AR-Team.avi2.18 GB
Furiosa.A.Mad.Max.Saga.2024.AVO.WEB-DLRip-AR-Team.srt87.14 kB
Furiosa.A.Mad.Max.Saga.2024.AVO.WEB-DLRip-AR-Team_track4_[eng].srt69.11 kB
Furiosa.A.Mad.Max.Saga.2024.AVO.WEB-DLRip-AR-Team_track5_[eng].srt91.70 kB

Похожие раздачи по запросу - Фуриоса
2024-07-15 magnet Фуриоса: Хроники Безумного Макса / Фуріоза: Шалений Макс. Сага / Furiosa: A Mad Max Saga (2024) WEB-DL-HEVC 2160p | 4K | SDR | D | UKR 26.45 GB ↑ 0 ↓ 1
2024-07-06 magnet Фуриоса: Хроники Безумного Макса / Furiosa: A Mad Max Saga (2024) UHD WEB-DL 2160p | 4K | HDR | Dolby Vision Profile 8 | D, P, A 31.04 GB ↑ 2 ↓ 13
2024-07-03 magnet Фуриоса: Хроники Безумного Макса / Furiosa: A Mad Max Saga (2024) WEB-DLRip-AVC | КПК | D, P | Red Head Sound, HDrezka Studio 805.80 MB ↑ 0 ↓ 0
2024-07-03 magnet Фуриоса: Хроники Безумного Макса / Furiosa: A Mad Max Saga [2024, фантастика, боевик, WEB-DLRip-AVC] Dub 2.18 GB ↑ 0 ↓ 2
2024-07-01 magnet Фуриоса: Хроники Безумного Макса / Furiosa: A Mad Max Saga (2024) WEB-DLRip 1080p | D, P, A | Movie Dubbing, RHS, LostFilm, HDrezka, Jaskier, TVShows, Яроцкий 22.53 GB ↑ 1 ↓ 3
2024-06-30 magnet Фуриоса: Хроники Безумного Макса / Furiosa: A Mad Max Saga (2024) WEB-DLRip от DoMiNo & селезень | D | Red Head Sound 1.47 GB ↑ 2 ↓ 0
2024-06-30 magnet Фуриоса: Хроники Безумного Макса / Furiosa: A Mad Max Saga (2024) UHD WEB-DL HEVC 2160p | 4K | Dolby Vision TV | D | Movie Dubbing, Red Head Sound 27.00 GB ↑ 0 ↓ 1

Комментарии


Зарегистрируйтесь чтобы добавить комментарий
Торрент клиент
byTorrent - программа для загрузки торрент-файлов.

Скачать byTorrent.exe (1,5 МБ)

Скачать byTorrent.zip (0,6 МБ)

Поддержи torrent.by
российских рублей
(300 российских рублей это 4$)

Обратная связь rss

End game ©