↑↓torrent.by
Поиск
Логин:  Регистрация
Пароль:

Мегаломаньяк. Реинкарнация / Megalomaniac (2022) BDRip от AR-Team | D

download Скачать торрент-файл   magnet Магнитная ссылка Размер: 1.46 GB Добавлен: temaxa 2024-06-25 22:27
Пиры будут получены из сети DHT
Последний сидер был замечен 2024-06-26 06:53
Мегаломаньяк. Реинкарнация / Megalomaniac (2022) BDRip
Производство: Бельгия / Les Films du Carré, Okayss Prod., uFund, uMedia Family Жанр: Ужасы Режиссер: Карим Уэлхаж Актеры: Элайн Шумахер, Бенжамен Рамон, Хелен Моор, Вим Вилларт, Рафаэль Брюно, Пьер Ниссе, Оливье Пикар, Квентин Ласбазейе, Джули Кэрролл, Катрин Жандрен Описание: Спустя почти 30 лет дело жестокого маньяка возобновляется. Возможно ли, что после долгого затишья он опять взялся за старое? Или же породил новых монстров, продолживших серию кровавых убийств? Чтобы выяснить это, предстоит погрузиться в ужасающие семейные тайны. Возраст: 18+ (зрителям, достигшим 18 лет. запрещено для детей) Релиз от: AR-Team Продолжительность: 01:45:23 Качество видео: BDRip Перевод: Дублированный (WinMedia) Язык озвучки: Русский Субтитры: Английские - отдельно Видео: Xvid, 720x304, ~1593 Kbps Аудио: AC3, 6 ch, 384 Kbps
[+] MediaInfo:
General
Complete name                  : Megalomaniac.2022.BDRip_AR-Team.avi
Format                         : AVI
Format/Info                    : Audio Video Interleave
Format settings                : BitmapInfoHeader / WaveFormatEx
File size                      : 1.46 GiB
Duration                       : 1 h 45 min
Overall bit rate               : 1 987 kb/s
Frame rate                     : 23.976 FPS
Writing application            : VirtualDubMod 1.5.10.3 | (build 2550/release)
Writing library                : VirtualDubMod build 2550/release

Video
ID                             : 0
Format                         : MPEG-4 Visual
Format profile                 : Advanced Simple@L5
Format settings                : BVOP1 / Custom Matrix
Format settings, BVOP          : 1
Format settings, QPel          : No
Format settings, GMC           : No warppoints
Format settings, Matrix        : Custom
Codec ID                       : XVID
Codec ID/Hint                  : XviD
Duration                       : 1 h 45 min
Bit rate                       : 1 594 kb/s
Width                          : 720 pixels
Height                         : 304 pixels
Display aspect ratio           : 2.35:1
Frame rate                     : 23.976 (24000/1001) FPS
Color space                    : YUV
Chroma subsampling             : 4:2:0
Bit depth                      : 8 bits
Scan type                      : Progressive
Compression mode               : Lossy
Bits/(Pixel*Frame)             : 0.304
Stream size                    : 1.17 GiB (80%)
Writing library                : XviD 73

Audio
ID                             : 1
Format                         : AC-3
Format/Info                    : Audio Coding 3
Commercial name                : Dolby Digital
Codec ID                       : 2000
Duration                       : 1 h 45 min
Bit rate mode                  : Constant
Bit rate                       : 384 kb/s
Channel(s)                     : 6 channels
Channel layout                 : L R C LFE Ls Rs
Sampling rate                  : 48.0 kHz
Frame rate                     : 31.250 FPS (1536 SPF)
Compression mode               : Lossy
Stream size                    : 289 MiB (19%)
Alignment                      : Split across interleaves
Interleave, duration           : 42  ms (1.00 video frame)
Interleave, preload duration   : 500  ms
Service kind                   : Complete Main
Dialog Normalization           : -31 dB
cmixlev                        : -3.0 dB
surmixlev                      : -3 dB
dialnorm_Average               : -31 dB
dialnorm_Minimum               : -31 dB
dialnorm_Maximum               : -31 dB
Скриншоты:

Всего файлов в раздаче: 2 
Megalomaniac.2022.BDRip_AR-Team.avi1.46 GB
Megalomaniac.2022.BDRip_AR-Team_track5_[eng].srt33.88 kB

Похожие раздачи по запросу - Мегаломаньяк
2024-06-26 magnet Мегаломаньяк. Реинкарнация / Megalomaniac (2022) BDRip от MegaPeer | D 1.46 GB ↑ 0 ↓ 0

Комментарии


Зарегистрируйтесь чтобы добавить комментарий
Торрент клиент
byTorrent - программа для загрузки торрент-файлов.

Скачать byTorrent.exe (1,5 МБ)

Скачать byTorrent.zip (0,6 МБ)

Поддержи torrent.by
российских рублей
(300 российских рублей это 4$)

Обратная связь rss

End game ©