↑↓torrent.by
Поиск
Логин:  Регистрация
Пароль:

Претенденты / Challengers (2024) WEB-DLRip от AR-Team | D | Red Head Sound | Кинопрокатная версия

download Скачать торрент-файл   magnet Магнитная ссылка Размер: 1.46 GB Добавлен: temaxa 2024-06-26 00:27
Пиры будут получены из сети DHT
Последний сидер был замечен вчера в 02:28
Претенденты / Challengers (2024) WEB-DLRip
Производство: США, Италия / Frenesy Film Company, Metro-Goldwyn-Mayer (MGM), Pascal Pictures Жанр: драма, спорт Режиссер: Лука Гуаданьино Актеры: Зендея, Майк Фейст, Джош О’Коннор, Дарнелл Эпплинг, Брайан Ду, Шейн Т Харрис, Нада Деспотович, Джоан Макшейн, Крис Фаулер, Мэри Джо Фернандес Описание: 2019 год. Теннисист Арт Дональдсон переживает не лучший период в карьере, поэтому, чтобы поднять его моральный дух и укрепить веру в себя, его жена и по совместительству тренер Таши предлагает принять участие в турнире серии ATP Challenger. В прошлом она сама была многообещающей спортсменкой, но не смогла восстановиться после травмы колена, и теперь все силы вкладывает в мужа. В финале Арт выходит на бывшего парня Таши и некогда своего лучшего друга Патрика Цвейга, для которого победа тоже становится делом принципа. Рейтинг MPAA: R (лицам до 17 лет обязательно присутствие взрослого) Релиз от: AR-Team Продолжительность: 02:09:46 Качество видео: WEB-DLRip Перевод: Дублированный (Red Head Sound) Язык озвучки: Русский Субтитры: Отсутствуют Видео: Xvid, 704x384, ~1219 Kbps Аудио: AC3, 6 ch, 384 Kbps
[+] MediaInfo:
General
Complete name: Challengers_2024_WEB-DLRip_RHS_AR-Team.avi
Format: AVI
Format/Info: Audio Video Interleave
Format settings: BitmapInfoHeader / WaveFormatEx
File size: 1.46 GiB
Duration: 2 h 9 min
Overall bit rate: 1 613 kb/s
Frame rate: 23.976 FPS
Writing application: VirtualDubMod 1.5.10.3 | (build 2550/release)
Writing library: VirtualDubMod build 2550/release

Video
ID: 0
Format: MPEG-4 Visual
Format profile: Advanced Simple@L5
Format settings: BVOP1 / Custom Matrix
Format settings, BVOP: 1
Format settings, QPel: No
Format settings, GMC: No warppoints
Format settings, Matrix: Custom
Codec ID: XVID
Codec ID/Hint: XviD
Duration: 2 h 9 min
Bit rate: 1 220 kb/s
Width: 704 pixels
Height: 384 pixels
Display aspect ratio: 1.85:1
Frame rate: 23.976 (24000/1001) FPS
Color space: YUV
Chroma subsampling: 4:2:0
Bit depth: 8 bits
Scan type: Progressive
Compression mode: Lossy
Bits/(Pixel*Frame): 0.188
Stream size: 1.11 GiB (76%)
Writing library: XviD 73

Audio
ID: 1
Format: AC-3
Format/Info: Audio Coding 3
Commercial name: Dolby Digital
Codec ID: 2000
Duration: 2 h 9 min
Bit rate mode: Constant
Bit rate: 384 kb/s
Channel(s): 6 channels
Channel layout: L R C LFE Ls Rs
Sampling rate: 48.0 kHz
Frame rate: 31.250 FPS (1536 SPF)
Compression mode: Lossy
Stream size: 356 MiB (24%)
Alignment: Split across interleaves
Interleave, duration: 42 ms (1.00 video frame)
Interleave, preload duration: 500 ms
Service kind: Complete Main
Dialog Normalization: -31 dB
cmixlev: -3.0 dB
surmixlev: -3 dB
dialnorm_Average: -31 dB
dialnorm_Minimum: -31 dB
dialnorm_Maximum: -31 dB
[+] Дополнительная информация: Кинопрокатная версия - Это ЦЕНЗУРНАЯ версия картины, именно ее показывали в кинотеатрах. Все ЛГБТ-сцены продолжительностью около 2 минут (по понятным причинам) подвержены цензуре и отсутствуют в данном видеоряде.
Скриншоты:

Всего файлов в раздаче: 1 
Challengers_2024_WEB-DLRip_RHS_AR-Team.avi1.46 GB

Похожие раздачи по запросу - Претенденты
2024-07-15 magnet Претенденты / Суперники / Challengers (2024) BDRemux 1080p | P | UKR 32.12 GB ↑ 0 ↓ 1
2024-06-27 magnet Претенденты / Challengers (2024) WEB-DLRip 720p от DoMiNo & селезень | D | Red Head Sound | Кинопрокатная версия 3.10 GB ↑ 0 ↓ 0
2024-06-26 magnet Претенденты / Challengers (2024) WEB-DL 1080p от Scarabey | D | Red Head Sound | Кинопрокатная версия 9.01 GB ↑ 1 ↓ 1
2024-05-21 magnet Претенденты / Challengers (2024) WEB-DLRip-AVC | P | HDRezka Studio 2.44 GB ↑ 0 ↓ 0
2024-05-21 magnet Претенденты / Challengers (2024) WEB-DL 1080p от New-Team | P | HDRezka Studio 9.60 GB ↑ 0 ↓ 0
2024-05-21 magnet Претенденты / Challengers (2024) WEB-DL 720p | Sub 4.21 GB ↑ 0 ↓ 0

Комментарии


Зарегистрируйтесь чтобы добавить комментарий
Торрент клиент
byTorrent - программа для загрузки торрент-файлов.

Скачать byTorrent.exe (1,5 МБ)

Скачать byTorrent.zip (0,6 МБ)

Поддержи torrent.by
российских рублей
(300 российских рублей это 4$)

Обратная связь rss

End game ©