↑↓torrent.by
Поиск
Логин:  Регистрация
Пароль:

Круиз. В поисках сокровищ / Boeien! (2022) WEB-DL 1080p | D

download Скачать торрент-файл   magnet Магнитная ссылка Размер: 3.06 GB Добавлен: 2024-06-26 05:00
Пиры будут получены из сети DHT
Последний сидер был замечен 2024-06-26 05:00
Название: Круиз. В поисках сокровищ Оригинальное название: Boeien! Год выпуска: 2022 Жанр: Приключения, семейный Выпущено: Нидерланды, Messercola Drama & Soap Режиссер: Боб Вилберс В ролях: Яила Врум, Вут Виссер, Сара Хронис, Эдвин Джонкер, Ферди Стофмел, Юват Вестендорп, Сес Гел, Люк ван дер Бом, Элли Люст, Класье Мейер О фильме: Ходят слухи, что на лайнере, отправляющемся в морской круиз, промышляют воришки. Они похищают сокровища у пассажира, и уверены, что поймать их никому не по силам. Когда на борт поднимается одна веселая семейка, становится жарко: находчивые брат и сестра выводят мошенников на чистую воду. Продолжительность: 01:04:50 Перевод: Дублированный (MOYGOLOS) Качество: WEB-DL 1080p Формат: MKV Видео: MPEG-4 AVC, 6144 Кбит/с, 1920x1080 Аудио: Русский (AC3, 6 ch, 640 Кбит/с) Субтитры: отсутствуют
[+] MIGeneral Unique ID : 286017806912689309916636604268252923185 (0xD72D06A120A7EFC9B3285A7681A68531) Complete name : E:Boeien.2022.1080p.WEB-DL.mkv Format : Matroska Format version : Version 4 File size : 3.06 GiB Duration : 1 h 4 min Overall bit rate mode : Constant Overall bit rate : 6 753 kb/s Encoded date : UTC 2024-06-25 05:31:30 Writing application : mkvmerge v62.0.0 ('Apollo') 64-bit Writing library : libebml v1.4.2 + libmatroska v1.6.4 Video ID : 1 Format : AVC Format/Info : Advanced Video Codec Format profile : Baseline@L4 Format settings : 2 Ref Frames Format settings, CABAC : No Format settings, Reference frames : 2 frames Codec ID : V_MPEG4/ISO/AVC Duration : 1 h 4 min Bit rate mode : Constant Bit rate : 6 144 kb/s Width : 1 920 pixels Height : 1 080 pixels Display aspect ratio : 16:9 Frame rate mode : Constant Frame rate : 24.000 FPS Color space : YUV Chroma subsampling : 4:2:0 Bit depth : 8 bits Scan type : Progressive Bits/(Pixel*Frame) : 0.123 Stream size : 2.77 GiB (90%) Language : English Default : Yes Forced : No Audio ID : 2 Format : AC-3 Format/Info : Audio Coding 3 Commercial name : Dolby Digital Codec ID : A_AC3 Duration : 1 h 4 min Bit rate mode : Constant Bit rate : 640 kb/s Channel(s) : 6 channels Channel layout : L R C LFE Ls Rs Sampling rate : 48.0 kHz Frame rate : 31.250 FPS (1536 SPF) Compression mode : Lossy Stream size : 297 MiB (9%) Language : Russian Service kind : Complete Main Default : Yes Forced : No
[+] Скриншоты

Всего файлов в раздаче: 1 
Boeien.2022.1080p.WEB-DL.mkv3.06 GB

Похожие раздачи по запросу - Круиз
2023-07-29 magnet Круиз по джунглям: Тайна Вальверде / Jack Mimoun & les secrets de Val Verde (2022) BDRip-AVC от DoMiNo & селезень | D 2.24 GB ↑ 0 ↓ 0
2021-10-09 magnet Круиз по джунглям / Jungle Cruise (2021) BDRip-HEVC 1080p от HEVC-CLUB | D, P 4.96 GB ↑ 1 ↓ 0

Комментарии


Зарегистрируйтесь чтобы добавить комментарий
Торрент клиент
byTorrent - программа для загрузки торрент-файлов.

Скачать byTorrent.exe (1,5 МБ)

Скачать byTorrent.zip (0,6 МБ)

Поддержи torrent.by
российских рублей
(300 российских рублей это 4$)

Обратная связь rss

End game ©