↑↓torrent.by
Поиск
Логин:  Регистрация
Пароль:

Где моя тачка, чувак? / Dude, Where's My Car? (2000) BDRip-HEVC 1080p от RIPS CLUB | D, A

download Скачать торрент-файл   magnet Магнитная ссылка Размер: 8.05 GB Добавлен: 2024-06-26 05:00
Пиры будут получены из сети DHT
Последний сидер был замечен 2024-06-26 17:23
Название: Где моя тачка, чувак? Оригинальное название: Dude, Where's My Car? Год производства: 2000 Производство: США / Alcon Entertainment, Twentieth Century Fox Жанр: фантастика, комедия, детектив Режиссёр: Дэнни Лейнер В ролях: Эштон Кутчер, Шонн Уильям Скотт, Дженнифер Гарнер, Марла Соколофф, Кристи Суонсон, Дэвид Херман, Хэл Спаркс, Чарли О’Коннелл, Джон Тоулс-Бей, Кристиан Миддлтон О фильме: Для двух придурковатых приятелей ночь прошла просто великолепно. Одна проблема — они ничего не могут вспомнить, в том числе и место, где они оставили машину. Единственное, что они точно знают — в холодильнике лежит годовой запас пудинга, а их подружки дуются из-за того, что они забыли о годовщине. Для того чтобы наладить отношения с ними, друзьям надо найти подарки, подготовленные как раз для этого случая. Но это не легко — они находятся в машине. Друзья решают вернуться и выяснить, что они делали вчера? — возможно, это их выведет к пропавшей машине. И это путешествие круто изменит их жизнь. Продолжительность: 01:23:04 Перевод: дублированный, авторский Качество: BDRip-HEVC 1080p Кодек: HEVC (x265) Видео: 1920x1040, ~11.4 Mbps, HEVC (Main10@L.4.1@High) 10 бит Звук: Аудио1: AC3, 6 ch, 384 Kbps - Русский, DUB Аудио2: AC3, 6 ch, 384 Kbps - Русский, AVO (Юрий Живов) Аудио3: AC3, 2 ch, 192 Kbps - Русский, AVO (Сергей Кузнецов) Аудио4: AC3, 6 ch, 448 Kbps - Русский, AVO (Денис Строев) Аудио5: AC3, 6 ch, 384 Kbps - Украинский, MVO (Новий канал) Аудио6: AC3, 6 ch, 640 Kbps - Английский Субтитры: русские, украинские, английские (SDH) Навигация по главам: Есть
[+] Лог (x265 info) + Mediainfo x265 : frame I: 501, Avg QP:18.44 kb/s: 22843.57 x265 : frame P: 19972, Avg QP:19.87 kb/s: 17919.99 x265 : frame B: 99047, Avg QP:21.63 kb/s: 10078.23 x265 : Weighted P-Frames: Y:6.7% UV:5.4% x265 : Weighted B-Frames: Y:6.5% UV:4.4% x265 : encoded 119520 frames in 118733.35s (1.01 fps), 11442.11 kb/s, Avg QP:21.32 Общее Уникальный идентификатор : 81017690834742193568586526556977778800 (0x3CF3708EE499DD1D055A83DAFA7E5070) Полное имя : .Где.моя.тачка.чувак.Dude.Wheres.My.Car.2000.BDRip-HEVC.1080p.mkv Формат : Matroska Версия формата : Version 4 Размер файла : 8,05 Гбайт Продолжительность : 1 ч. 23 мин. Общий битрейт : 13,9 Мбит/сек Частота кадров : 23,976 кадра/сек Название фильма : Где моя тачка, чувак? Кодирование выполнил : OldGamer Тип содержимого : Movie Описание : После ночи, которую они не могут вспомнить, наступает день, который они никогда не забудут. Дата выпуска : 2000-12-15 Дата записи : 2000-12-15 Дата кодирования : 2024-06-25 14:58:12 UTC Программа кодирования : mkvmerge v85.0 ('Shame For You') 64-bit Библиотека кодирования : libebml v1.4.5 + libmatroska v1.7.1 / xvid5psp5 Обложка : Yes Attachments : cover.jpg ACTOR : Эштон Кутчер, Seann William Scott, Дженнифер Гарнер, Marla Sokoloff, Kristy Swanson, David Herman, Hal Sparks, Charlie O'Connell, John Toles-Bey, Christian Middelthon, Dave Bannick, James Vincent, Bob Clendenin, Mary Lynn Rajskub, Kevin Christy, Kris... ARTIST : Эштон Кутчер, Seann William Scott, Дженнифер Гарнер, Marla Sokoloff, Kristy Swanson, David Herman, Hal Sparks, Charlie O'Connell, John Toles-Bey, Christian Middelthon, Dave Bannick, James Vincent, Bob Clendenin, Mary Lynn Rajskub, Kevin Christy, Kris... DIRECTOR : Danny Leiner GENRE : комедия, мелодрама LAW_RATING : PG-13 PRODUCER : Broderick Johnson, Andrew A. Kosove, Gil Netter, Wayne Allan Rice PRODUCTION_STUDIO : Alcon Entertainment RATING : PG-13 SCREENPLAY_BY : Philip Stark SUMMARY : После ночи, которую они не могут вспомнить, наступает день, который они никогда не забудут. SYNOPSIS : Для двух придурковатых приятелей ночь прошла просто великолепно. Одна проблема — они ничего не могут вспомнить, в том числе и место, где они оставили машину. Единственное, что они точно знают — в холодильнике лежит годовой запас пудинга, а их подружки дуются из-за того, что они забыли о годовщине. Для того чтобы наладить отношения с ними, друзьям надо найти подарки, подготовленные как раз для этого случая. Но это не легко — они находятся в машине. Друзья решают вернуться и выяснить, что они делали вчера — возможно, это их выведет к пропавшей машине. И это путешествие круто изменит их жизнь. WRITTEN_BY : Philip Stark Видео Идентификатор : 1 Формат : HEVC Формат/Информация : High Efficiency Video Coding Профиль формата : Main 10@L4.1@High Идентификатор кодека : V_MPEGH/ISO/HEVC Продолжительность : 1 ч. 23 мин. Битрейт : 11,4 Мбит/сек Ширина : 1 920 пикселей Высота : 1 040 пикселей Соотношение сторон дисплея : 1,85:1 Режим частоты кадров : Постоянный Частота кадров : 23,976 (24000/1001) кадра/сек Цветовое пространство : YUV Цветовая субдискретизация : 4:2:0 Битовая глубина : 10 бит Бит/(Пиксели*Кадры) : 0.239 Размер потока : 6,64 Гбайт (82%) Заголовок : Dude Wheres My Car / Rip by OldGamer Библиотека кодирования : x265 3.6+27-8787e8702: 10bit Параметры библиотеки кодирования : cpuid=1111039 / frame-threads=3 / numa-pools=8 / wpp / no-pmode / no-pme / no-psnr / no-ssim / log-level=2 / input-csp=1 / input-res=1920x1040 / interlace=0 / total-frames=119520 / level-idc=41 / high-tier=1 / uhd-bd=0 / ref=5 / no-allow-non-conformance / no-repeat-headers / annexb / no-aud / no-eob / no-eos / no-hrd / info / hash=0 / temporal-layers=0 / open-gop / min-keyint=23 / keyint=240 / gop-lookahead=0 / bframes=16 / b-adapt=2 / b-pyramid / bframe-bias=0 / rc-lookahead=60 / lookahead-slices=0 / scenecut=40 / no-hist-scenecut / radl=0 / no-splice / no-intra-refresh / ctu=32 / min-cu-size=8 / rect / amp / max-tu-size=32 / tu-inter-depth=4 / tu-intra-depth=4 / limit-tu=1 / rdoq-level=2 / dynamic-rd=0.00 / no-ssim-rd / signhide / no-tskip / nr-intra=0 / nr-inter=0 / no-constrained-intra / no-strong-intra-smoothing / max-merge=5 / limit-refs=3 / no-limit-modes / me=3 / subme=7 / merange=57 / temporal-mvp / no-frame-dup / no-hme / weightp / weightb / no-analyze-src-pics / deblock=-2:-2 / no-sao / no-sao-non-deblock / rd=6 / selective-sao=0 / no-early-skip / no-rskip / no-fast-intra / no-tskip-fast / no-cu-lossless / b-intra / no-splitrd-skip / rdpenalty=0 / psy-rd=2.00 / psy-rdoq=1.00 / no-rd-refine / no-lossless / cbqpoffs=0 / crqpoffs=0 / rc=crf / crf=19.2 / qcomp=0.60 / qpstep=4 / stats-write=0 / stats-read=0 / vbv-maxrate=50000 / vbv-bufsize=50000 / vbv-init=0.9 / min-vbv-fullness=50.0 / max-vbv-fullness=80.0 / crf-max=0.0 / crf-min=0.0 / ipratio=1.40 / pbratio=1.30 / aq-mode=1 / aq-strength=1.00 / no-cutree / zone-count=1 / zones: / start-frame=114291 / end-frame=119520 / qp=36 / no-strict-cbr / qg-size=32 / no-rc-grain / qpmax=69 / qpmin=0 / no-const-vbv / sar=1 / overscan=0 / videoformat=5 / range=0 / colorprim=2 / transfer=2 / colormatrix=2 / chromaloc=0 / display-window=0 / cll=0,0 / min-luma=0 / max-luma=1023 / log2-max-poc-lsb=8 / vui-timing-info / vui-hrd-info / slices=1 / no-opt-qp-pps / no-opt-ref-list-length-pps / no-multi-pass-opt-rps / scenecut-bias=0.00 / no-opt-cu-delta-qp / no-aq-motion / no-hdr10 / no-hdr10-opt / no-dhdr10-opt / no-idr-recovery-sei / analysis-reuse-level=0 / analysis-save-reuse-level=0 / analysis-load-reuse-level=0 / scale-factor=0 / refine-intra=0 / refine-inter=0 / refine-mv=1 / refine-ctu-distortion=0 / no-limit-sao / ctu-info=0 / no-lowpass-dct / refine-analysis-type=0 / copy-pic=1 / max-ausize-factor=1.0 / no-dynamic-refine / no-single-sei / no-hevc-aq / no-svt / no-field / qp-adaptation-range=1.00 / scenecut-aware-qp=0conformance-window-offsets / right=0 / bottom=0 / decoder-max-rate=0 / no-vbv-live-multi-pass / no-mcstf / no-sbrc Язык : Английский По умолчанию : Да Принудительно : Нет Аудио #1 Идентификатор : 2 Формат : AC-3 Формат/Информация : Audio Coding 3 Коммерческое название : Dolby Digital Идентификатор кодека : A_AC3 Продолжительность : 1 ч. 23 мин. Вид битрейта : Постоянный Битрейт : 384 Кбит/сек Канал(-ы) : 6 каналов Расположение каналов : L R C LFE Ls Rs Частота дискретизации : 48,0 КГц Частота кадров : 31,250 кадров/сек (1536 SPF) Метод сжатия : С потерями Размер потока : 228 Мбайт (3%) Заголовок : DUB Язык : Русский Вид сервиса : Complete Main По умолчанию : Да Принудительно : Нет Нормализация звука речи : -27 dB compr : -0.28 dB dynrng : -1.48 dB cmixlev : -3.0 dB surmixlev : -3 dB mixlevel : 285 dB roomtyp : Small dialnorm_Average : -27 dB dialnorm_Minimum : -27 dB dialnorm_Maximum : -27 dB Аудио #2 Идентификатор : 3 Формат : AC-3 Формат/Информация : Audio Coding 3 Коммерческое название : Dolby Digital Идентификатор кодека : A_AC3 Продолжительность : 1 ч. 23 мин. Вид битрейта : Постоянный Битрейт : 384 Кбит/сек Канал(-ы) : 6 каналов Расположение каналов : L R C LFE Ls Rs Частота дискретизации : 48,0 КГц Частота кадров : 31,250 кадров/сек (1536 SPF) Метод сжатия : С потерями Размер потока : 228 Мбайт (3%) Заголовок : AVO (Юрий Живов) Язык : Русский Вид сервиса : Complete Main По умолчанию : Нет Принудительно : Нет Нормализация звука речи : -31 dB dynrng : 5.88 dB cmixlev : -3.0 dB surmixlev : -3 dB dialnorm_Average : -31 dB dialnorm_Minimum : -31 dB dialnorm_Maximum : -31 dB Аудио #3 Идентификатор : 4 Формат : AC-3 Формат/Информация : Audio Coding 3 Коммерческое название : Dolby Digital Идентификатор кодека : A_AC3 Продолжительность : 1 ч. 23 мин. Вид битрейта : Постоянный Битрейт : 192 Кбит/сек Канал(-ы) : 2 канала Расположение каналов : L R Частота дискретизации : 48,0 КГц Частота кадров : 31,250 кадров/сек (1536 SPF) Метод сжатия : С потерями Размер потока : 114 Мбайт (1%) Заголовок : AVO (Сергей Кузнецов) Язык : Русский Вид сервиса : Complete Main По умолчанию : Нет Принудительно : Нет Нормализация звука речи : -27 dB compr : -0.28 dB dynrng : -8.70 dB dsurmod : Not Dolby Surround encoded mixlevel : 285 dB roomtyp : Small dialnorm_Average : -27 dB dialnorm_Minimum : -27 dB dialnorm_Maximum : -27 dB Аудио #4 Идентификатор : 5 Формат : AC-3 Формат/Информация : Audio Coding 3 Коммерческое название : Dolby Digital Идентификатор кодека : A_AC3 Продолжительность : 1 ч. 23 мин. Вид битрейта : Постоянный Битрейт : 448 Кбит/сек Канал(-ы) : 6 каналов Расположение каналов : L R C LFE Ls Rs Частота дискретизации : 48,0 КГц Частота кадров : 31,250 кадров/сек (1536 SPF) Метод сжатия : С потерями Размер потока : 266 Мбайт (3%) Заголовок : VO (Денис Строев) Язык : Русский Вид сервиса : Complete Main По умолчанию : Нет Принудительно : Нет Нормализация звука речи : -27 dB compr : -0.28 dB dynrng : -0.86 dB cmixlev : -3.0 dB surmixlev : -3 dB mixlevel : 285 dB roomtyp : Small dialnorm_Average : -27 dB dialnorm_Minimum : -27 dB dialnorm_Maximum : -27 dB Аудио #5 Идентификатор : 6 Формат : AC-3 Формат/Информация : Audio Coding 3 Коммерческое название : Dolby Digital Идентификатор кодека : A_AC3 Продолжительность : 1 ч. 23 мин. Вид битрейта : Постоянный Битрейт : 384 Кбит/сек Канал(-ы) : 6 каналов Расположение каналов : L R C LFE Ls Rs Частота дискретизации : 48,0 КГц Частота кадров : 31,250 кадров/сек (1536 SPF) Метод сжатия : С потерями Размер потока : 228 Мбайт (3%) Заголовок : MVO (Новий канал) Язык : Украинский Вид сервиса : Complete Main По умолчанию : Нет Принудительно : Нет Нормализация звука речи : -31 dB cmixlev : -3.0 dB surmixlev : -3 dB dialnorm_Average : -31 dB dialnorm_Minimum : -31 dB dialnorm_Maximum : -31 dB Аудио #6 Идентификатор : 7 Формат : AC-3 Формат/Информация : Audio Coding 3 Коммерческое название : Dolby Digital Идентификатор кодека : A_AC3 Продолжительность : 1 ч. 23 мин. Вид битрейта : Постоянный Битрейт : 640 Кбит/сек Канал(-ы) : 6 каналов Расположение каналов : L R C LFE Ls Rs Частота дискретизации : 48,0 КГц Частота кадров : 31,250 кадров/сек (1536 SPF) Метод сжатия : С потерями Размер потока : 380 Мбайт (5%) Язык : Английский Вид сервиса : Complete Main По умолчанию : Нет Принудительно : Нет Нормализация звука речи : -31 dB cmixlev : -3.0 dB surmixlev : -3 dB dialnorm_Average : -31 dB dialnorm_Minimum : -31 dB dialnorm_Maximum : -31 dB Текст #1 Идентификатор : 8 Формат : UTF-8 Идентификатор кодека : S_TEXT/UTF8 Идентификатор кодека/Информация : UTF-8 Plain Text Продолжительность : 1 ч. 22 мин. Битрейт : 99 бит/сек Частота кадров : 0,242 кадр/сек Число элементов : 1204 Размер потока : 60,3 КиБ (0%) Язык : Русский По умолчанию : Нет Принудительно : Нет Текст #2 Идентификатор : 9 Формат : UTF-8 Идентификатор кодека : S_TEXT/UTF8 Идентификатор кодека/Информация : UTF-8 Plain Text Продолжительность : 1 ч. 22 мин. Битрейт : 94 бит/сек Частота кадров : 0,242 кадр/сек Число элементов : 1202 Размер потока : 57,6 КиБ (0%) Язык : Украинский По умолчанию : Нет Принудительно : Нет Текст #3 Идентификатор : 10 Формат : UTF-8 Идентификатор кодека : S_TEXT/UTF8 Идентификатор кодека/Информация : UTF-8 Plain Text Продолжительность : 1 ч. 22 мин. Битрейт : 480 бит/сек Частота кадров : 0,273 кадр/сек Число элементов : 1352 Размер потока : 291 КиБ (0%) Язык : Английский По умолчанию : Нет Принудительно : Нет Текст #4 Идентификатор : 11 Формат : UTF-8 Идентификатор кодека : S_TEXT/UTF8 Идентификатор кодека/Информация : UTF-8 Plain Text Продолжительность : 1 ч. 22 мин. Битрейт : 74 бит/сек Частота кадров : 0,248 кадр/сек Число элементов : 1229 Размер потока : 45,2 КиБ (0%) Заголовок : SDH Язык : Английский По умолчанию : Нет Принудительно : Нет Меню 00:00:00.000 : en:Main Titles 00:02:11.005 : en:Jesse and Chester 00:06:53.246 : en:Where's Your Car, Dude? 00:08:46.359 : en:Nelson 00:13:29.809 : en:Christie Boner 00:16:17.976 : en:The Kitty Kat Club 00:19:52.816 : en:Back to the Twins 00:23:39.084 : en:Zarnoff and Company 00:25:58.473 : en:Mr. Lee 00:31:14.998 : en:Hot Chicks 00:33:15.535 : en:The Police 00:37:14.232 : en:Looking Forjesse and Chester 00:41:44.210 : en:Wanda and Wilma 00:44:21.658 : en:The Car Impound Lot 00:47:21.004 : en:Kidnapped 00:54:05.784 : en:The Car's New Owner 01:01:22.970 : en:At Captain Stu's 01:05:12.658 : en:The Continuum Transfunctioner 01:10:33.228 : en:Mighty Morphing Hot Chicks 01:14:25.252 : en:Like It Never Happened 01:15:32.402 : en:Anniversary Presents 01:17:28.727 : en:End Titles
[+] Скриншоты
Релиз от: OldGamer ЦитатаКто-то писал:дорожка с переводом Строева обозначена авторской по правилам оформления презентаций на трекере, на других ресурсах сети может быть другое обозначение

Всего файлов в раздаче: 1 
Где.моя.тачка.чувак.Dude.Wheres.My.Car.2000.BDRip-HEVC.1080p.mkv8.05 GB

Похожие раздачи по запросу - Где
2024-07-07 magnet Где раз поднят русский флаг... (2021) HDTV 1080i 2.64 GB ↑ 0 ↓ 0
2024-06-17 magnet Что? Где? Когда? Летняя серия игр [01-05 из 05] (2024) HDTVRip 3.19 GB ↑ 0 ↓ 0
2024-06-10 magnet Что? Где? Когда? Летняя серия игр [01-04 из 05] (2024) HDTVRip 2.54 GB ↑ 0 ↓ 0
2022-04-12 magnet Что? Где? Когда? Весенняя серия игр [01-02 из 05] (2022) HDTV 1080i 4.18 GB ↑ 1 ↓ 0

Комментарии


Зарегистрируйтесь чтобы добавить комментарий
Торрент клиент
byTorrent - программа для загрузки торрент-файлов.

Скачать byTorrent.exe (1,5 МБ)

Скачать byTorrent.zip (0,6 МБ)

Поддержи torrent.by
российских рублей
(300 российских рублей это 4$)

Обратная связь rss

End game ©