↑↓torrent.by
Поиск
Логин:  Регистрация
Пароль:

Полицейская академия: Антология / Police Academy: The Complete Collection (1984-1994) BDRip-AVC от MediaClub | D, P, P2, A

download Скачать торрент-файл   magnet Магнитная ссылка Размер: 23.46 GB Добавлен: 2024-06-26 05:00
Пиры будут получены из сети DHT
Последний сидер был замечен вчера в 22:27
Название: Полицейская академия: Антология Оригинальное название: Police Academy: The Complete Collection Год выпуска: 1984-1994 Жанр: Комедия, криминал Режиссер: Хью Уилсон, Джерри Пэрис, Алан Майерсон, Питер Бонерз, Алан Меттер В ролях: Стив Гуттенберг, Ким Кэтролл, Дж. У. Бэйли, Бубба Смит, Донован Скотт, Джордж Гейнс, Эндрю Рубин, Дэвид Граф, Лесли Истербрук, Майкл Уинслоу Шэрон Стоун, Ричард Израэль, Клер Форлани, Рон Перлман, Кристофер Ли, Коллин Кэмп, Арт Метрано, Ховард Хессеман, Боб Голдтуэйт, Тим Казурински, Лэнс Кинси, Мэрион Рэмси, Рене Обержонуа, Джэнет Джоунс О фильме: Мирные жители США находятся в опасности! Мэр города принял новый закон — больше нет никаких ограничений при приеме на службу в полицию. Вес, пол, рост и слабые умственные способности никому не помешают поступить в полицейскую академию. Приемные комиссии ломятся от толстяков, ботаников и уличных хулиганов. Преподаватели академии в шоке и намерены любым способом избавиться от студентов.
[+] Содержание Полицейская академия / Police Academy (1984): Мирные жители США находятся в опасности! Мэр города принял новый закон — больше нет никаких ограничений при приеме на службу в полицию. Вес, пол, рост и слабые умственные способности никому не помешают поступить в полицейскую академию. Приемные комиссии ломятся от толстяков, ботаников и уличных хулиганов. Преподаватели академии в шоке и намерены любым способом избавиться от студентов. Но экзамены, физподготовка и гей-бары абсолютно не страшат новичков. Не такое видали! Качество: BDRip (AVC) Видео: MPEG-4 AVC, 3500 Кбит/с, 1024x576, 23.976 кадр/с Аудио #1: Русский (AC3, 2 ch, 192 Кбит/с) / Дублированный (Варус Видео) Аудио #2: Русский (AC3, 1 ch, 192 Кбит/с) / Авторский одноголосый (А.Михалев) Аудио #3: Русский (AC3, 2 ch, 192 Кбит/с) / Профессиональный двухголосый (НТВ) Аудио #4: Английский (AC3, 1 ch, 192 Кбит/с) Аудио #5: Русский (AC3, 2 ch, 192 Кбит/с) / Профессиональный многоголосый (ВГТРК) (внешний) Аудио #6: Русский (AC3, 2 ch, 192 Кбит/с) / Профессиональный многоголосый (Интер) (внешний) Аудио #7: Русский (AC3, 1 ch, 192 Кбит/с) / Профессиональный двухголосый (Карусель) (внешний) Аудио #8: Русский (AC3, 1 ch, 192 Кбит/с) / Профессиональный двухголосый (FDV) (внешний) Аудио #9: Русский (AC3, 2 ch, 192 Кбит/с) / Профессиональный двухголосый (Universal Channel) (внешний) Аудио #10: Русский (AC3, 2 ch, 192 Кбит/с) / Профессиональный двухголосый (внешний) Аудио #11: Русский (AC3, 1 ch, 192 Кбит/с) / Авторский одноголосый (М.Яроцкий) (внешний) Аудио #12: Русский (AC3, 2 ch, 192 Кбит/с) / Авторский одноголосый (Л.Володарский) (внешний) Аудио #13: Русский (AC3, 2 ch, 192 Кбит/с) / Профессиональный многоголосый (1+1) (внешний) Продолжительность: 01:36:25 Полицейская академия 2. Их первое задание / Police Academy 2: Their First Assignment (1985): Банда хулиганов творит безобразия по всему городу и опустошает карманы всех, кто находится с ними на одном тротуаре. Осторожно! Когда увальни в голубой форме решат разобраться с этими парнями, это закончится умопомрачительным смехом. Качество: BDRip (AVC) Видео: MPEG-4 AVC, 3500 Кбит/с, 1024x576, 23.976 кадр/с Аудио #1: Русский (AC3, 2 ch, 192 Кбит/с) / Дублированный (Варус Видео) Аудио #2: Русский (AC3, 2 ch, 192 Кбит/с) / Профессиональный двухголосый (НТВ) Аудио #3: Русский (AC3, 1 ch, 192 Кбит/с) / Авторский одноголосый (А.Михалев) Аудио #4: Английский (AC3, 1 ch, 192 Кбит/с) Аудио #5: Русский (AC3, 2 ch, 192 Кбит/с) / Профессиональный многоголосый (ВГТРК) (внешний) Аудио #6: Русский (AC3, 1 ch, 192 Кбит/с) / Профессиональный двухголосый (Карусель) (внешний) Аудио #7: Русский (AC3, 2 ch, 192 Кбит/с) / Профессиональный двухголосый (Universal Channel) (внешний) Аудио #8: Русский (AC3, 2 ch, 192 Кбит/с) / Профессиональный двухголосый (внешний) Аудио #9: Русский (AC3, 2 ch, 192 Кбит/с) / Авторский одноголосый (А.Гаврилов) (внешний) Аудио #10: Русский (AC3, 2 ch, 192 Кбит/с) / Авторский одноголосый (Л.Володарский) (внешний) Аудио #11: Русский (AC3, 2 ch, 192 Кбит/с) / Профессиональный многоголосый (1+1) (внешний) Продолжительность: 01:27:10 Полицейская академия 3. Переподготовка Police Academy 3: Back in Training (1986): Правительство заявило, что только одна из двух полицейских школ может продолжать свою работу. Начинается жестокое состязание на выживание — ни одна из академий не желает закрываться, в дело идут все средства. Махони, Хайтауэр, Тэклберри, Джонс, Хукс и Кэллагэн под командованием несгибаемого коменданта Лассарда, мобилизуют для спасения своей Альма Матер новую команду безнадежных рекрутов. Качество: BDRip (AVC) Видео: MPEG-4 AVC, 3199 Кбит/с, 1024x576, 23.976 кадр/с Аудио #1: Русский (AC3, 2 ch, 192 Кбит/с) / Дублированный (Варус Видео) Аудио #2: Русский (AC3, 2 ch, 192 Кбит/с) / Профессиональный двухголосый (НТВ) Аудио #3: Русский (AC3, 1 ch, 192 Кбит/с) / Авторский одноголосый (А.Гаврилов) Аудио #4: Английский (AC3, 1 ch, 192 Кбит/с) Аудио #5: Русский (AC3, 1 ch, 192 Кбит/с) / Профессиональный двухголосый (Карусель) (внешний) Аудио #6: Русский (AC3, 2 ch, 192 Кбит/с) / Профессиональный двухголосый (Universal Channel) (внешний) Аудио #7: Русский (AC3, 2 ch, 192 Кбит/с) / Профессиональный двухголосый (внешний) Аудио #8: Русский (AC3, 2 ch, 192 Кбит/с) / Авторский одноголосый (М.Иванов) (внешний) Аудио #9: Русский (AC3, 2 ch, 192 Кбит/с) / Авторский одноголосый (Л.Володарский) (внешний) Аудио #10: Русский (AC3, 2 ch, 192 Кбит/с) / Профессиональный многоголосый (1+1) (внешний) Продолжительность: 01:23:44 Полицейская академия 4. Граждане в дозоре / Police Academy 4: Citizens on Patrol (1987): Упрямый и предприимчивый Лассард решает усилить безопасность на улице с помощью создания добровольных дружин под названием «Граждане на дежурстве». Угадайте, кто будет инструктировать обывателей? Верно, те же выпускники академии, что принимали «неуд» в своих зачетках за отличные отметки. Когда конкурент, лейтенант Харрис, наблюдает за этими упражнениями, он решает использовать их для дискредитации Академии. Но наши герои сложили свои коэффициенты умственного развития и поднялись в воздух на бипланах и воздушных шарах: кто-то должен спасать положение! Качество: BDRip (AVC) Видео: MPEG-4 AVC, 3500 Кбит/с, 1024x576, 23.976 кадр/с Аудио #1: Русский (AC3, 2 ch, 192 Кбит/с) / Дублированный (Варус Видео) Аудио #2: Русский (AC3, 2 ch, 192 Кбит/с) / Авторский одноголосый (А.Гаврилов - ранний) Аудио #3: Русский (AC3, 2 ch, 192 Кбит/с) / Профессиональный двухголосый (НТВ) Аудио #4: Английский (AC3, 1 ch, 192 Кбит/с) Аудио #5: Русский (AC3, 2 ch, 192 Кбит/с) / Профессиональный многоголосый (Россия) (внешний) Аудио #6: Русский (AC3, 5 ch, 384 Кбит/с) / Профессиональный многоголосый (Lazer Video) (внешний) Аудио #7: Русский (AC3, 1 ch, 192 Кбит/с) / Профессиональный двухголосый (Карусель) (внешний) Аудио #8: Русский (AC3, 1 ch, 192 Кбит/с) / Авторский одноголосый (А.Гаврилов) (внешний) Аудио #9: Русский (AC3, 2 ch, 192 Кбит/с) / Профессиональный многоголосый (1+1) (внешний) Продолжительность: 01:27:18 Полицейская академия 5. Место назначения - Майами бич / Police Academy 5: Assignment: Miami Beach (1988): Солнце, веселье и красивые девушки. Где всему этому быть, как не в Майами Бич? На этом пятом празднике смеха наши герои летят в Майами на чествование любимого коменданта Лассарда. Но у преступников не бывает отпусков, когда отдыхают наши любимые полицейские. Лассард похищен. И даже соблазнительные пляжные вечеринки не смогут отвлечь наших неистовых бойцов от отчаянной попытки спасения заложника. Качество: BDRip (AVC) Видео: MPEG-4 AVC, 3498 Кбит/с, 1024x576, 23.976 кадр/с Аудио #1: Русский (AC3, 2 ch, 192 Кбит/с) / Дублированный (Варус Видео) Аудио #2: Русский (AC3, 1 ch, 192 Кбит/с) / Авторский одноголосый (А.Михалев) Аудио #3: Русский (AC3, 2 ch, 192 Кбит/с) / Профессиональный двухголосый (НТВ) Аудио #4: Английский (AC3, 1 ch, 192 Кбит/с) Аудио #5: Русский (AC3, 2 ch, 192 Кбит/с) / Профессиональный многоголосый (Россия) (внешний) Аудио #6: Русский (AC3, 5 ch, 384 Кбит/с) / Профессиональный многоголосый (Lazer Video) (внешний) Аудио #7: Русский (AC3, 1 ch, 192 Кбит/с) / Профессиональный двухголосый (Карусель) (внешний) Аудио #8: Русский (AC3, 2 ch, 192 Кбит/с) / Профессиональный многоголосый (1+1) (внешний) Продолжительность: 01:29:51 Полицейская академия 6. Город в осаде / Police Academy 6: City Under Siege (1989): Вспышка криминальной активности под кодовым названием «Операция Хаос» может потребовать занавеса для ничего не подозревающего города. Лучшие полицейские специалисты из знаменитой Полицейской Академии взялись за дело. Качество: BDRip (AVC) Видео: MPEG-4 AVC, 3497 Кбит/с, 1024x576, 23.976 кадр/с Аудио #1: Русский (AC3, 2 ch, 192 Кбит/с) / Дублированный (Варус Видео) Аудио #2: Русский (AC3, 1 ch, 192 Кбит/с) / Авторский одноголосый (А.Гаврилов) Аудио #3: Русский (AC3, 2 ch, 192 Кбит/с) / Профессиональный двухголосый (НТВ) Аудио #4: Английский (AC3, 1 ch, 192 Кбит/с) Аудио #5: Русский (AC3, 5 ch, 384 Кбит/с) / Профессиональный многоголосый (Lazer Video) (внешний) Аудио #6: Русский (AC3, 1 ch, 192 Кбит/с) / Профессиональный двухголосый (Карусель) (внешний) Аудио #7: Русский (AC3, 2 ch, 192 Кбит/с) / Авторский одноголосый (А.Гаврилов) (внешний) Аудио #8: Русский (AC3, 1 ch, 192 Кбит/с) / Авторский одноголосый (Wizard) (внешний) Аудио #9: Русский (AC3, 2 ch, 192 Кбит/с) / Профессиональный многоголосый (1+1) (внешний) Продолжительность: 01:23:56 Полицейская академия 7. Миссия в Москве / Police Academy: Mission to Moscow (1994): Полицейская академия в Москве! Русский балет. Русская водка. И русская мафия. Самая опасная операция в жизни полицейских академиков! Смогут ли они вернуться живыми?.. Качество: BDRip (AVC) Видео: MPEG-4 AVC, 3499 Кбит/с, 1024x576, 23.976 кадр/с Аудио #1: Русский (AC3, 2 ch, 192 Кбит/с) / Профессиональный двухголосый (НТВ) Аудио #2: Русский (AC3, 2 ch, 192 Кбит/с) / Авторский одноголосый (А.Гаврилов) Аудио #3: Английский (AC3, 2 ch, 256 Кбит/с) Аудио #4: Русский (AC3, 5 ch, 384 Кбит/с) / Профессиональный многоголосый (Lazer Video) (внешний) Аудио #5: Русский (AC3, 2 ch, 256 Кбит/с) / Профессиональный двухголосый (Карусель) (внешний) Аудио #6: Русский (AC3, 1 ch, 192 Кбит/с) / Авторский одноголосый (А.Пронин) (внешний) Аудио #7: Русский (AC3, 2 ch, 256 Кбит/с) / Авторский одноголосый (Е.Гранкин) (внешний) Аудио #8: Русский (AC3, 2 ch, 192 Кбит/с) / Авторский одноголосый (Wizard) (внешний) Аудио #9: Русский (AC3, 2 ch, 192 Кбит/с) / Профессиональный многоголосый (1+1) (внешний) Продолжительность: 01:22:42
Страна: США Студия: Warner Bros Продолжительность: 7 x ~ 01:30:00 Перевод: Дублированный, профессиональный многоголосый, профессиональный двухголосый, авторский одноголосый Файл Кодек: MPEG-4 AVC Качество: BDRip-AVC Видео: ~ 3456 Кбит/с, 1024x576, 23.976 кадр/с Аудио: Русский (AC3, 2 ch, 192 Кбит/с), английский (AC3, 1 ch, 192 Кбит/с) / подробнее см. спойлер Содержание. Семпл
[+] Инфо-файлОбщее Уникальный идентификатор : 232674826184417907954031887308168419274 (0xAF0B8AA018800C4FB1FE466088C0D7CA) Полное имя : D:TorrentsPolicejskaja.akademija.7.Filmov.iz.7.x264.BDRip.(AVC)-MediaClubPolicejskaja.akademija.Film.1.1984.x264.BDRip.(AVC)-MediaClub.mkv Формат : Matroska Версия формата : Version 2 Размер файла : 2,88 Гбайт Продолжительность : 1 ч. 36 м. Общий поток : 4270 Кбит/сек Название фильма : -=Released by Kortec for MediaClub=- Дата кодирования : UTC 2014-01-14 20:25:46 Программа кодирования : mkvmerge v4.0.0 ('The Stars were mine') сборка от Jun 6 2010 16:18:42 Библиотека кодирования : libebml v1.0.0 + libmatroska v1.0.0 Видео Идентификатор : 1 Формат : AVC Формат/Информация : Advanced Video Codec Профиль формата : High@L4.1 Параметр CABAC формата : Да Параметр ReFrames формата : 11 кадров Идентификатор кодека : V_MPEG4/ISO/AVC Продолжительность : 1 ч. 36 м. Битрейт : 3500 Кбит/сек Ширина : 1024 пикселя Высота : 576 пикселей Соотношение сторон : 16:9 Режим частоты кадров : Постоянный Частота кадров : 23,976 кадра/сек Цветовое пространство : YUV Субдискретизация насыщенности : 4:2:0 Битовая глубина : 8 бит Тип развёртки : Прогрессивная Бит/(Пиксели*Кадры) : 0.247 Размер потока : 2,30 Гбайт (80%) Библиотека кодирования : x264 core 130 r2273 b3065e6 Настройки программы : cabac=1 / ref=11 / deblock=1:-2:-2 / analyse=0x3:0x133 / me=umh / subme=11 / psy=1 / psy_rd=1.00:0.10 / mixed_ref=1 / me_range=32 / chroma_me=1 / trellis=2 / 8x8dct=1 / cqm=0 / deadzone=21,11 / fast_pskip=0 / chroma_qp_offset=-3 / threads=6 / lookahead_threads=1 / sliced_threads=0 / nr=0 / decimate=0 / interlaced=0 / bluray_compat=0 / constrained_intra=0 / bframes=8 / b_pyramid=2 / b_adapt=2 / b_bias=0 / direct=3 / weightb=1 / open_gop=0 / weightp=2 / keyint=240 / keyint_min=23 / scenecut=40 / intra_refresh=0 / rc=2pass / mbtree=0 / bitrate=3500 / ratetol=1.0 / qcomp=0.60 / qpmin=0 / qpmax=69 / qpstep=4 / cplxblur=20.0 / qblur=0.5 / ip_ratio=1.40 / pb_ratio=1.30 / aq=1:0.80 Язык : English Default : Нет Forced : Нет Аудио #1 Идентификатор : 2 Формат : AC-3 Формат/Информация : Audio Coding 3 Расширение режима : CM (complete main) Параметр Endianness формата : Big Идентификатор кодека : A_AC3 Продолжительность : 1 ч. 36 м. Вид битрейта : Постоянный Битрейт : 192 Кбит/сек Каналы : 2 канала Расположение каналов : Front: L R Частота : 48,0 КГц Битовая глубина : 16 бит Метод сжатия : С потерями Размер потока : 132 Мбайт (4%) Заголовок : DUB Язык : Russian Default : Да Forced : Да Аудио #2 Идентификатор : 3 Формат : AC-3 Формат/Информация : Audio Coding 3 Расширение режима : CM (complete main) Параметр Endianness формата : Big Идентификатор кодека : A_AC3 Продолжительность : 1 ч. 36 м. Вид битрейта : Постоянный Битрейт : 192 Кбит/сек Каналы : 1 канал Расположение каналов : Front: C Частота : 48,0 КГц Битовая глубина : 16 бит Метод сжатия : С потерями Размер потока : 132 Мбайт (4%) Заголовок : Михалев Язык : Russian Default : Нет Forced : Нет Аудио #3 Идентификатор : 4 Формат : AC-3 Формат/Информация : Audio Coding 3 Расширение режима : CM (complete main) Параметр Endianness формата : Big Идентификатор кодека : A_AC3 Продолжительность : 1 ч. 36 м. Вид битрейта : Постоянный Битрейт : 192 Кбит/сек Каналы : 2 канала Расположение каналов : Front: L R Частота : 48,0 КГц Битовая глубина : 16 бит Метод сжатия : С потерями Размер потока : 132 Мбайт (4%) Заголовок : НТВ Язык : Russian Default : Нет Forced : Нет Аудио #4 Идентификатор : 5 Формат : AC-3 Формат/Информация : Audio Coding 3 Расширение режима : CM (complete main) Параметр Endianness формата : Big Идентификатор кодека : A_AC3 Продолжительность : 1 ч. 36 м. Вид битрейта : Постоянный Битрейт : 192 Кбит/сек Каналы : 1 канал Расположение каналов : Front: C Частота : 48,0 КГц Битовая глубина : 16 бит Метод сжатия : С потерями Размер потока : 132 Мбайт (4%) Язык : English Default : Нет Forced : Нет Общее Полное имя : D:TorrentsPolicejskaja.akademija.7.Filmov.iz.7.x264.BDRip.(AVC)-MediaClub1AVO.ВОЛОДАРСКИЙ.ac3 Формат : AC-3 Формат/Информация : Audio Coding 3 Размер файла : 132 Мбайт Продолжительность : 1 ч. 36 м. Режим общего битрейта : Постоянный Общий поток : 192 Кбит/сек Аудио Формат : AC-3 Формат/Информация : Audio Coding 3 Расширение режима : CM (complete main) Параметр Endianness формата : Big Продолжительность : 1 ч. 36 м. Вид битрейта : Постоянный Битрейт : 192 Кбит/сек Каналы : 2 канала Расположение каналов : Front: L R Частота : 48,0 КГц Битовая глубина : 16 бит Метод сжатия : С потерями Размер потока : 132 Мбайт (100%) Общее Полное имя : D:TorrentsPolicejskaja.akademija.7.Filmov.iz.7.x264.BDRip.(AVC)-MediaClub1AVO.ЯРОЦКИЙ.ac3 Формат : AC-3 Формат/Информация : Audio Coding 3 Размер файла : 132 Мбайт Продолжительность : 1 ч. 36 м. Режим общего битрейта : Постоянный Общий поток : 192 Кбит/сек Аудио Формат : AC-3 Формат/Информация : Audio Coding 3 Расширение режима : CM (complete main) Параметр Endianness формата : Big Продолжительность : 1 ч. 36 м. Вид битрейта : Постоянный Битрейт : 192 Кбит/сек Каналы : 1 канал Расположение каналов : Front: C Частота : 48,0 КГц Битовая глубина : 16 бит Метод сжатия : С потерями Размер потока : 132 Мбайт (100%) Общее Полное имя : D:TorrentsPolicejskaja.akademija.7.Filmov.iz.7.x264.BDRip.(AVC)-MediaClub1DVO.ac3 Формат : AC-3 Формат/Информация : Audio Coding 3 Размер файла : 132 Мбайт Продолжительность : 1 ч. 36 м. Режим общего битрейта : Постоянный Общий поток : 192 Кбит/сек Аудио Формат : AC-3 Формат/Информация : Audio Coding 3 Расширение режима : CM (complete main) Параметр Endianness формата : Big Продолжительность : 1 ч. 36 м. Вид битрейта : Постоянный Битрейт : 192 Кбит/сек Каналы : 2 канала Расположение каналов : Front: L R Частота : 48,0 КГц Битовая глубина : 16 бит Метод сжатия : С потерями Размер потока : 132 Мбайт (100%) Общее Полное имя : D:TorrentsPolicejskaja.akademija.7.Filmov.iz.7.x264.BDRip.(AVC)-MediaClub1DVO.ЮНИВЕРСАЛ.ac3 Формат : AC-3 Формат/Информация : Audio Coding 3 Размер файла : 132 Мбайт Продолжительность : 1 ч. 36 м. Режим общего битрейта : Постоянный Общий поток : 192 Кбит/сек Аудио Формат : AC-3 Формат/Информация : Audio Coding 3 Расширение режима : CM (complete main) Параметр Endianness формата : Big Продолжительность : 1 ч. 36 м. Вид битрейта : Постоянный Битрейт : 192 Кбит/сек Каналы : 2 канала Расположение каналов : Front: L R Частота : 48,0 КГц Битовая глубина : 16 бит Метод сжатия : С потерями Размер потока : 132 Мбайт (100%) Общее Полное имя : D:TorrentsPolicejskaja.akademija.7.Filmov.iz.7.x264.BDRip.(AVC)-MediaClub1FDV1.ac3 Формат : AC-3 Формат/Информация : Audio Coding 3 Размер файла : 132 Мбайт Продолжительность : 1 ч. 36 м. Режим общего битрейта : Постоянный Общий поток : 192 Кбит/сек Аудио Формат : AC-3 Формат/Информация : Audio Coding 3 Расширение режима : CM (complete main) Параметр Endianness формата : Big Продолжительность : 1 ч. 36 м. Вид битрейта : Постоянный Битрейт : 192 Кбит/сек Каналы : 1 канал Расположение каналов : Front: C Частота : 48,0 КГц Битовая глубина : 16 бит Метод сжатия : С потерями Размер потока : 132 Мбайт (100%) Общее Полное имя : D:TorrentsPolicejskaja.akademija.7.Filmov.iz.7.x264.BDRip.(AVC)-MediaClub1MVO.1+1.ac3 Формат : AC-3 Формат/Информация : Audio Coding 3 Размер файла : 132 Мбайт Продолжительность : 1 ч. 36 м. Режим общего битрейта : Постоянный Общий поток : 192 Кбит/сек Аудио Формат : AC-3 Формат/Информация : Audio Coding 3 Расширение режима : CM (complete main) Параметр Endianness формата : Big Продолжительность : 1 ч. 36 м. Вид битрейта : Постоянный Битрейт : 192 Кбит/сек Каналы : 2 канала Расположение каналов : Front: L R Частота : 48,0 КГц Битовая глубина : 16 бит Метод сжатия : С потерями Размер потока : 132 Мбайт (100%) Общее Полное имя : D:TorrentsPolicejskaja.akademija.7.Filmov.iz.7.x264.BDRip.(AVC)-MediaClub1MVO.ВГТРК.ac3 Формат : AC-3 Формат/Информация : Audio Coding 3 Размер файла : 132 Мбайт Продолжительность : 1 ч. 36 м. Режим общего битрейта : Постоянный Общий поток : 192 Кбит/сек Аудио Формат : AC-3 Формат/Информация : Audio Coding 3 Расширение режима : CM (complete main) Параметр Endianness формата : Big Продолжительность : 1 ч. 36 м. Вид битрейта : Постоянный Битрейт : 192 Кбит/сек Каналы : 2 канала Расположение каналов : Front: L R Частота : 48,0 КГц Битовая глубина : 16 бит Метод сжатия : С потерями Размер потока : 132 Мбайт (100%) Общее Полное имя : D:TorrentsPolicejskaja.akademija.7.Filmov.iz.7.x264.BDRip.(AVC)-MediaClub1MVO.ИНТЕР.ac3 Формат : AC-3 Формат/Информация : Audio Coding 3 Размер файла : 132 Мбайт Продолжительность : 1 ч. 36 м. Режим общего битрейта : Постоянный Общий поток : 192 Кбит/сек Аудио Формат : AC-3 Формат/Информация : Audio Coding 3 Расширение режима : CM (complete main) Параметр Endianness формата : Big Продолжительность : 1 ч. 36 м. Вид битрейта : Постоянный Битрейт : 192 Кбит/сек Каналы : 2 канала Расположение каналов : Front: L R Частота : 48,0 КГц Битовая глубина : 16 бит Метод сжатия : С потерями Размер потока : 132 Мбайт (100%) Общее Полное имя : D:TorrentsPolicejskaja.akademija.7.Filmov.iz.7.x264.BDRip.(AVC)-MediaClub1Карусель1.ac3 Формат : AC-3 Формат/Информация : Audio Coding 3 Размер файла : 132 Мбайт Продолжительность : 1 ч. 36 м. Режим общего битрейта : Постоянный Общий поток : 192 Кбит/сек Аудио Формат : AC-3 Формат/Информация : Audio Coding 3 Расширение режима : CM (complete main) Параметр Endianness формата : Big Продолжительность : 1 ч. 36 м. Вид битрейта : Постоянный Битрейт : 192 Кбит/сек Каналы : 1 канал Расположение каналов : Front: C Частота : 48,0 КГц Битовая глубина : 16 бит Метод сжатия : С потерями Размер потока : 132 Мбайт (100%) Общее Уникальный идентификатор : 236377150421471727366213642351590477905 (0xB1D4954DAE4425B3BC4FBD7303DF9051) Полное имя : D:TorrentsPolicejskaja.akademija.7.Filmov.iz.7.x264.BDRip.(AVC)-MediaClubPolicejskaja.akademija.Film.2.1985.x264.BDRip.(AVC)-MediaClub.mkv Формат : Matroska Версия формата : Version 2 Размер файла : 2,60 Гбайт Продолжительность : 1 ч. 27 м. Общий поток : 4270 Кбит/сек Название фильма : -=Released by Kortec for MediaClub=- Дата кодирования : UTC 2014-01-14 20:31:08 Программа кодирования : mkvmerge v4.0.0 ('The Stars were mine') сборка от Jun 6 2010 16:18:42 Библиотека кодирования : libebml v1.0.0 + libmatroska v1.0.0 Видео Идентификатор : 1 Формат : AVC Формат/Информация : Advanced Video Codec Профиль формата : High@L4.1 Параметр CABAC формата : Да Параметр ReFrames формата : 11 кадров Идентификатор кодека : V_MPEG4/ISO/AVC Продолжительность : 1 ч. 27 м. Битрейт : 3500 Кбит/сек Ширина : 1024 пикселя Высота : 576 пикселей Соотношение сторон : 16:9 Режим частоты кадров : Постоянный Частота кадров : 23,976 кадра/сек Цветовое пространство : YUV Субдискретизация насыщенности : 4:2:0 Битовая глубина : 8 бит Тип развёртки : Прогрессивная Бит/(Пиксели*Кадры) : 0.247 Размер потока : 2,08 Гбайт (80%) Библиотека кодирования : x264 core 130 r2273 b3065e6 Настройки программы : cabac=1 / ref=11 / deblock=1:-2:-2 / analyse=0x3:0x133 / me=umh / subme=11 / psy=1 / psy_rd=1.00:0.10 / mixed_ref=1 / me_range=32 / chroma_me=1 / trellis=2 / 8x8dct=1 / cqm=0 / deadzone=21,11 / fast_pskip=0 / chroma_qp_offset=-3 / threads=6 / lookahead_threads=1 / sliced_threads=0 / nr=0 / decimate=0 / interlaced=0 / bluray_compat=0 / constrained_intra=0 / bframes=8 / b_pyramid=2 / b_adapt=2 / b_bias=0 / direct=3 / weightb=1 / open_gop=0 / weightp=2 / keyint=240 / keyint_min=23 / scenecut=40 / intra_refresh=0 / rc=2pass / mbtree=0 / bitrate=3500 / ratetol=1.0 / qcomp=0.60 / qpmin=0 / qpmax=69 / qpstep=4 / cplxblur=20.0 / qblur=0.5 / ip_ratio=1.40 / pb_ratio=1.30 / aq=1:0.80 Язык : English Default : Нет Forced : Нет Аудио #1 Идентификатор : 2 Формат : AC-3 Формат/Информация : Audio Coding 3 Расширение режима : CM (complete main) Параметр Endianness формата : Big Идентификатор кодека : A_AC3 Продолжительность : 1 ч. 27 м. Вид битрейта : Постоянный Битрейт : 192 Кбит/сек Каналы : 2 канала Расположение каналов : Front: L R Частота : 48,0 КГц Битовая глубина : 16 бит Метод сжатия : С потерями Размер потока : 120 Мбайт (4%) Заголовок : DUB Язык : Russian Default : Да Forced : Да Аудио #2 Идентификатор : 3 Формат : AC-3 Формат/Информация : Audio Coding 3 Расширение режима : CM (complete main) Параметр Endianness формата : Big Идентификатор кодека : A_AC3 Продолжительность : 1 ч. 27 м. Вид битрейта : Постоянный Битрейт : 192 Кбит/сек Каналы : 2 канала Расположение каналов : Front: L R Частота : 48,0 КГц Битовая глубина : 16 бит Метод сжатия : С потерями Размер потока : 120 Мбайт (4%) Заголовок : НТВ Язык : Russian Default : Нет Forced : Нет Аудио #3 Идентификатор : 4 Формат : AC-3 Формат/Информация : Audio Coding 3 Расширение режима : CM (complete main) Параметр Endianness формата : Big Идентификатор кодека : A_AC3 Продолжительность : 1 ч. 27 м. Вид битрейта : Постоянный Битрейт : 192 Кбит/сек Каналы : 1 канал Расположение каналов : Front: C Частота : 48,0 КГц Битовая глубина : 16 бит Метод сжатия : С потерями Размер потока : 120 Мбайт (4%) Заголовок : Михалев Язык : Russian Default : Нет Forced : Нет Аудио #4 Идентификатор : 5 Формат : AC-3 Формат/Информация : Audio Coding 3 Расширение режима : CM (complete main) Параметр Endianness формата : Big Идентификатор кодека : A_AC3 Продолжительность : 1 ч. 27 м. Вид битрейта : Постоянный Битрейт : 192 Кбит/сек Каналы : 1 канал Расположение каналов : Front: C Частота : 48,0 КГц Битовая глубина : 16 бит Метод сжатия : С потерями Размер потока : 120 Мбайт (4%) Язык : English Default : Нет Forced : Нет Общее Полное имя : D:TorrentsPolicejskaja.akademija.7.Filmov.iz.7.x264.BDRip.(AVC)-MediaClub2AVO.ВОЛОДАРСКИЙ.ac3 Формат : AC-3 Формат/Информация : Audio Coding 3 Размер файла : 120 Мбайт Продолжительность : 1 ч. 27 м. Режим общего битрейта : Постоянный Общий поток : 192 Кбит/сек Аудио Формат : AC-3 Формат/Информация : Audio Coding 3 Расширение режима : CM (complete main) Параметр Endianness формата : Big Продолжительность : 1 ч. 27 м. Вид битрейта : Постоянный Битрейт : 192 Кбит/сек Каналы : 2 канала Расположение каналов : Front: L R Частота : 48,0 КГц Битовая глубина : 16 бит Метод сжатия : С потерями Размер потока : 120 Мбайт (100%) Общее Полное имя : D:TorrentsPolicejskaja.akademija.7.Filmov.iz.7.x264.BDRip.(AVC)-MediaClub2AVO.ГАВРИЛОВ.ac3 Формат : AC-3 Формат/Информация : Audio Coding 3 Размер файла : 120 Мбайт Продолжительность : 1 ч. 27 м. Режим общего битрейта : Постоянный Общий поток : 192 Кбит/сек Аудио Формат : AC-3 Формат/Информация : Audio Coding 3 Расширение режима : CM (complete main) Параметр Endianness формата : Big Продолжительность : 1 ч. 27 м. Вид битрейта : Постоянный Битрейт : 192 Кбит/сек Каналы : 2 канала Расположение каналов : Front: L R Частота : 48,0 КГц Битовая глубина : 16 бит Метод сжатия : С потерями Размер потока : 120 Мбайт (100%) Общее Полное имя : D:TorrentsPolicejskaja.akademija.7.Filmov.iz.7.x264.BDRip.(AVC)-MediaClub2DVO.ac3 Формат : AC-3 Формат/Информация : Audio Coding 3 Размер файла : 120 Мбайт Продолжительность : 1 ч. 27 м. Режим общего битрейта : Постоянный Общий поток : 192 Кбит/сек Аудио Формат : AC-3 Формат/Информация : Audio Coding 3 Расширение режима : CM (complete main) Параметр Endianness формата : Big Продолжительность : 1 ч. 27 м. Вид битрейта : Постоянный Битрейт : 192 Кбит/сек Каналы : 2 канала Расположение каналов : Front: L R Частота : 48,0 КГц Битовая глубина : 16 бит Метод сжатия : С потерями Размер потока : 120 Мбайт (100%) Общее Полное имя : D:TorrentsPolicejskaja.akademija.7.Filmov.iz.7.x264.BDRip.(AVC)-MediaClub2DVO.ЮНИВЕРСАЛ.ac3 Формат : AC-3 Формат/Информация : Audio Coding 3 Размер файла : 120 Мбайт Продолжительность : 1 ч. 27 м. Режим общего битрейта : Постоянный Общий поток : 192 Кбит/сек Аудио Формат : AC-3 Формат/Информация : Audio Coding 3 Расширение режима : CM (complete main) Параметр Endianness формата : Big Продолжительность : 1 ч. 27 м. Вид битрейта : Постоянный Битрейт : 192 Кбит/сек Каналы : 2 канала Расположение каналов : Front: L R Частота : 48,0 КГц Битовая глубина : 16 бит Метод сжатия : С потерями Размер потока : 120 Мбайт (100%) Общее Полное имя : D:TorrentsPolicejskaja.akademija.7.Filmov.iz.7.x264.BDRip.(AVC)-MediaClub2MVO.1+1.ac3 Формат : AC-3 Формат/Информация : Audio Coding 3 Размер файла : 120 Мбайт Продолжительность : 1 ч. 27 м. Режим общего битрейта : Постоянный Общий поток : 192 Кбит/сек Аудио Формат : AC-3 Формат/Информация : Audio Coding 3 Расширение режима : CM (complete main) Параметр Endianness формата : Big Продолжительность : 1 ч. 27 м. Вид битрейта : Постоянный Битрейт : 192 Кбит/сек Каналы : 2 канала Расположение каналов : Front: L R Частота : 48,0 КГц Битовая глубина : 16 бит Метод сжатия : С потерями Размер потока : 120 Мбайт (100%) Общее Полное имя : D:TorrentsPolicejskaja.akademija.7.Filmov.iz.7.x264.BDRip.(AVC)-MediaClub2MVO.ВГТРК.ac3 Формат : AC-3 Формат/Информация : Audio Coding 3 Размер файла : 120 Мбайт Продолжительность : 1 ч. 27 м. Режим общего битрейта : Постоянный Общий поток : 192 Кбит/сек Аудио Формат : AC-3 Формат/Информация : Audio Coding 3 Расширение режима : CM (complete main) Параметр Endianness формата : Big Продолжительность : 1 ч. 27 м. Вид битрейта : Постоянный Битрейт : 192 Кбит/сек Каналы : 2 канала Расположение каналов : Front: L R Частота : 48,0 КГц Битовая глубина : 16 бит Метод сжатия : С потерями Размер потока : 120 Мбайт (100%) Общее Полное имя : D:TorrentsPolicejskaja.akademija.7.Filmov.iz.7.x264.BDRip.(AVC)-MediaClub2Карусель2.ac3 Формат : AC-3 Формат/Информация : Audio Coding 3 Размер файла : 120 Мбайт Продолжительность : 1 ч. 27 м. Режим общего битрейта : Постоянный Общий поток : 192 Кбит/сек Аудио Формат : AC-3 Формат/Информация : Audio Coding 3 Расширение режима : CM (complete main) Параметр Endianness формата : Big Продолжительность : 1 ч. 27 м. Вид битрейта : Постоянный Битрейт : 192 Кбит/сек Каналы : 1 канал Расположение каналов : Front: C Частота : 48,0 КГц Битовая глубина : 16 бит Метод сжатия : С потерями Размер потока : 120 Мбайт (100%) Общее Уникальный идентификатор : 229818493616418745160570020559228192837 (0xACE56E8E928B56899D4D8DBB93974845) Полное имя : D:TorrentsPolicejskaja.akademija.7.Filmov.iz.7.x264.BDRip.(AVC)-MediaClubPolicejskaja.akademija.Film.3.1986.x264.BDRip.(AVC)-MediaClub.mkv Формат : Matroska Версия формата : Version 2 Размер файла : 2,32 Гбайт Продолжительность : 1 ч. 23 м. Общий поток : 3970 Кбит/сек Название фильма : -=Released by Kortec for MediaClub=- Дата кодирования : UTC 2014-01-14 20:34:48 Программа кодирования : mkvmerge v4.0.0 ('The Stars were mine') сборка от Jun 6 2010 16:18:42 Библиотека кодирования : libebml v1.0.0 + libmatroska v1.0.0 Видео Идентификатор : 1 Формат : AVC Формат/Информация : Advanced Video Codec Профиль формата : High@L4.1 Параметр CABAC формата : Да Параметр ReFrames формата : 9 кадров Идентификатор кодека : V_MPEG4/ISO/AVC Продолжительность : 1 ч. 23 м. Битрейт : 3200 Кбит/сек Ширина : 1024 пикселя Высота : 576 пикселей Соотношение сторон : 16:9 Режим частоты кадров : Постоянный Частота кадров : 23,976 кадра/сек Цветовое пространство : YUV Субдискретизация насыщенности : 4:2:0 Битовая глубина : 8 бит Тип развёртки : Прогрессивная Бит/(Пиксели*Кадры) : 0.226 Размер потока : 1,83 Гбайт (79%) Библиотека кодирования : x264 core 130 r2273 b3065e6 Настройки программы : cabac=1 / ref=9 / deblock=1:-2:-2 / analyse=0x3:0x133 / me=umh / subme=11 / psy=1 / psy_rd=1.00:0.10 / mixed_ref=1 / me_range=32 / chroma_me=1 / trellis=2 / 8x8dct=1 / cqm=0 / deadzone=21,11 / fast_pskip=0 / chroma_qp_offset=-3 / threads=6 / lookahead_threads=1 / sliced_threads=0 / nr=0 / decimate=0 / interlaced=0 / bluray_compat=0 / constrained_intra=0 / bframes=8 / b_pyramid=2 / b_adapt=2 / b_bias=0 / direct=3 / weightb=1 / open_gop=0 / weightp=2 / keyint=240 / keyint_min=23 / scenecut=40 / intra_refresh=0 / rc=2pass / mbtree=0 / bitrate=3200 / ratetol=1.0 / qcomp=0.60 / qpmin=0 / qpmax=69 / qpstep=4 / cplxblur=20.0 / qblur=0.5 / ip_ratio=1.40 / pb_ratio=1.30 / aq=1:0.80 Язык : English Default : Нет Forced : Нет Аудио #1 Идентификатор : 2 Формат : AC-3 Формат/Информация : Audio Coding 3 Расширение режима : CM (complete main) Параметр Endianness формата : Big Идентификатор кодека : A_AC3 Продолжительность : 1 ч. 23 м. Вид битрейта : Постоянный Битрейт : 192 Кбит/сек Каналы : 2 канала Расположение каналов : Front: L R Частота : 48,0 КГц Битовая глубина : 16 бит Метод сжатия : С потерями Размер потока : 115 Мбайт (5%) Заголовок : DUB Язык : Russian Default : Да Forced : Да Аудио #2 Идентификатор : 3 Формат : AC-3 Формат/Информация : Audio Coding 3 Расширение режима : CM (complete main) Параметр Endianness формата : Big Идентификатор кодека : A_AC3 Продолжительность : 1 ч. 23 м. Вид битрейта : Постоянный Битрейт : 192 Кбит/сек Каналы : 2 канала Расположение каналов : Front: L R Частота : 48,0 КГц Битовая глубина : 16 бит Метод сжатия : С потерями Размер потока : 115 Мбайт (5%) Заголовок : НТВ Язык : Russian Default : Нет Forced : Нет Аудио #3 Идентификатор : 4 Формат : AC-3 Формат/Информация : Audio Coding 3 Расширение режима : CM (complete main) Параметр Endianness формата : Big Идентификатор кодека : A_AC3 Продолжительность : 1 ч. 23 м. Вид битрейта : Постоянный Битрейт : 192 Кбит/сек Каналы : 1 канал Расположение каналов : Front: C Частота : 48,0 КГц Битовая глубина : 16 бит Метод сжатия : С потерями Размер потока : 115 Мбайт (5%) Заголовок : Гаврилов Язык : Russian Default : Нет Forced : Нет Аудио #4 Идентификатор : 5 Формат : AC-3 Формат/Информация : Audio Coding 3 Расширение режима : CM (complete main) Параметр Endianness формата : Big Идентификатор кодека : A_AC3 Продолжительность : 1 ч. 23 м. Вид битрейта : Постоянный Битрейт : 192 Кбит/сек Каналы : 1 канал Расположение каналов : Front: C Частота : 48,0 КГц Битовая глубина : 16 бит Метод сжатия : С потерями Размер потока : 115 Мбайт (5%) Язык : English Default : Нет Forced : Нет Общее Полное имя : D:TorrentsPolicejskaja.akademija.7.Filmov.iz.7.x264.BDRip.(AVC)-MediaClub3AVO.ВОЛОДАРСКИЙ.ac3 Формат : AC-3 Формат/Информация : Audio Coding 3 Размер файла : 115 Мбайт Продолжительность : 1 ч. 23 м. Режим общего битрейта : Постоянный Общий поток : 192 Кбит/сек Аудио Формат : AC-3 Формат/Информация : Audio Coding 3 Расширение режима : CM (complete main) Параметр Endianness формата : Big Продолжительность : 1 ч. 23 м. Вид битрейта : Постоянный Битрейт : 192 Кбит/сек Каналы : 2 канала Расположение каналов : Front: L R Частота : 48,0 КГц Битовая глубина : 16 бит Метод сжатия : С потерями Размер потока : 115 Мбайт (100%) Общее Полное имя : D:TorrentsPolicejskaja.akademija.7.Filmov.iz.7.x264.BDRip.(AVC)-MediaClub3AVO.ИВАНОВ.ac3 Формат : AC-3 Формат/Информация : Audio Coding 3 Размер файла : 115 Мбайт Продолжительность : 1 ч. 23 м. Режим общего битрейта : Постоянный Общий поток : 192 Кбит/сек Аудио Формат : AC-3 Формат/Информация : Audio Coding 3 Расширение режима : CM (complete main) Параметр Endianness формата : Big Продолжительность : 1 ч. 23 м. Вид битрейта : Постоянный Битрейт : 192 Кбит/сек Каналы : 2 канала Расположение каналов : Front: L R Частота : 48,0 КГц Битовая глубина : 16 бит Метод сжатия : С потерями Размер потока : 115 Мбайт (100%) Общее Полное имя : D:TorrentsPolicejskaja.akademija.7.Filmov.iz.7.x264.BDRip.(AVC)-MediaClub3DVO.ac3 Формат : AC-3 Формат/Информация : Audio Coding 3 Размер файла : 115 Мбайт Продолжительность : 1 ч. 23 м. Режим общего битрейта : Постоянный Общий поток : 192 Кбит/сек Аудио Формат : AC-3 Формат/Информация : Audio Coding 3 Расширение режима : CM (complete main) Параметр Endianness формата : Big Продолжительность : 1 ч. 23 м. Вид битрейта : Постоянный Битрейт : 192 Кбит/сек Каналы : 2 канала Расположение каналов : Front: L R Частота : 48,0 КГц Битовая глубина : 16 бит Метод сжатия : С потерями Размер потока : 115 Мбайт (100%) Общее Полное имя : D:TorrentsPolicejskaja.akademija.7.Filmov.iz.7.x264.BDRip.(AVC)-MediaClub3DVO.ЮНИВЕРСАЛ.ac3 Формат : AC-3 Формат/Информация : Audio Coding 3 Размер файла : 115 Мбайт Продолжительность : 1 ч. 23 м. Режим общего битрейта : Постоянный Общий поток : 192 Кбит/сек Аудио Формат : AC-3 Формат/Информация : Audio Coding 3 Расширение режима : CM (complete main) Параметр Endianness формата : Big Продолжительность : 1 ч. 23 м. Вид битрейта : Постоянный Битрейт : 192 Кбит/сек Каналы : 2 канала Расположение каналов : Front: L R Частота : 48,0 КГц Битовая глубина : 16 бит Метод сжатия : С потерями Размер потока : 115 Мбайт (100%) Общее Полное имя : D:TorrentsPolicejskaja.akademija.7.Filmov.iz.7.x264.BDRip.(AVC)-MediaClub3MVO.1+1.ac3 Формат : AC-3 Формат/Информация : Audio Coding 3 Размер файла : 115 Мбайт Продолжительность : 1 ч. 23 м. Режим общего битрейта : Постоянный Общий поток : 192 Кбит/сек Аудио Формат : AC-3 Формат/Информация : Audio Coding 3 Расширение режима : CM (complete main) Параметр Endianness формата : Big Продолжительность : 1 ч. 23 м. Вид битрейта : Постоянный Битрейт : 192 Кбит/сек Каналы : 2 канала Расположение каналов : Front: L R Частота : 48,0 КГц Битовая глубина : 16 бит Метод сжатия : С потерями Размер потока : 115 Мбайт (100%) Общее Полное имя : D:TorrentsPolicejskaja.akademija.7.Filmov.iz.7.x264.BDRip.(AVC)-MediaClub3Карусель3.ac3 Формат : AC-3 Формат/Информация : Audio Coding 3 Размер файла : 115 Мбайт Продолжительность : 1 ч. 23 м. Режим общего битрейта : Постоянный Общий поток : 192 Кбит/сек Аудио Формат : AC-3 Формат/Информация : Audio Coding 3 Расширение режима : CM (complete main) Параметр Endianness формата : Big Продолжительность : 1 ч. 23 м. Вид битрейта : Постоянный Битрейт : 192 Кбит/сек Каналы : 1 канал Расположение каналов : Front: C Частота : 48,0 КГц Битовая глубина : 16 бит Метод сжатия : С потерями Размер потока : 115 Мбайт (100%) Общее Уникальный идентификатор : 192601725321702370149562532211243151586 (0x90E5BE362687BF6CBE68917CA850F0E2) Полное имя : D:TorrentsPolicejskaja.akademija.7.Filmov.iz.7.x264.BDRip.(AVC)-MediaClubPolicejskaja.akademija.Film.4.1987.x264.BDRip.(AVC)-MediaClub.mkv Формат : Matroska Версия формата : Version 2 Размер файла : 2,60 Гбайт Продолжительность : 1 ч. 27 м. Общий поток : 4270 Кбит/сек Название фильма : -=Released by Kortec for MediaClub=- Дата кодирования : UTC 2014-01-14 20:39:17 Программа кодирования : mkvmerge v4.0.0 ('The Stars were mine') сборка от Jun 6 2010 16:18:42 Библиотека кодирования : libebml v1.0.0 + libmatroska v1.0.0 Видео Идентификатор : 1 Формат : AVC Формат/Информация : Advanced Video Codec Профиль формата : High@L4.1 Параметр CABAC формата : Да Параметр ReFrames формата : 9 кадров Идентификатор кодека : V_MPEG4/ISO/AVC Продолжительность : 1 ч. 27 м. Битрейт : 3500 Кбит/сек Ширина : 1024 пикселя Высота : 576 пикселей Соотношение сторон : 16:9 Режим частоты кадров : Постоянный Частота кадров : 23,976 кадра/сек Цветовое пространство : YUV Субдискретизация насыщенности : 4:2:0 Битовая глубина : 8 бит Тип развёртки : Прогрессивная Бит/(Пиксели*Кадры) : 0.247 Размер потока : 2,08 Гбайт (80%) Библиотека кодирования : x264 core 130 r2273 b3065e6 Настройки программы : cabac=1 / ref=9 / deblock=1:-2:-2 / analyse=0x3:0x133 / me=umh / subme=11 / psy=1 / psy_rd=1.00:0.10 / mixed_ref=1 / me_range=32 / chroma_me=1 / trellis=2 / 8x8dct=1 / cqm=0 / deadzone=21,11 / fast_pskip=0 / chroma_qp_offset=-3 / threads=6 / lookahead_threads=1 / sliced_threads=0 / nr=0 / decimate=0 / interlaced=0 / bluray_compat=0 / constrained_intra=0 / bframes=8 / b_pyramid=2 / b_adapt=2 / b_bias=0 / direct=3 / weightb=1 / open_gop=0 / weightp=2 / keyint=240 / keyint_min=23 / scenecut=40 / intra_refresh=0 / rc=2pass / mbtree=0 / bitrate=3500 / ratetol=1.0 / qcomp=0.60 / qpmin=0 / qpmax=69 / qpstep=4 / cplxblur=20.0 / qblur=0.5 / ip_ratio=1.40 / pb_ratio=1.30 / aq=1:0.80 Язык : English Default : Нет Forced : Нет Аудио #1 Идентификатор : 2 Формат : AC-3 Формат/Информация : Audio Coding 3 Расширение режима : CM (complete main) Параметр Endianness формата : Big Идентификатор кодека : A_AC3 Продолжительность : 1 ч. 27 м. Вид битрейта : Постоянный Битрейт : 192 Кбит/сек Каналы : 2 канала Расположение каналов : Front: L R Частота : 48,0 КГц Битовая глубина : 16 бит Метод сжатия : С потерями Размер потока : 120 Мбайт (4%) Заголовок : DUB Язык : Russian Default : Да Forced : Да Аудио #2 Идентификатор : 3 Формат : AC-3 Формат/Информация : Audio Coding 3 Расширение режима : CM (complete main) Параметр Endianness формата : Big Идентификатор кодека : A_AC3 Продолжительность : 1 ч. 27 м. Вид битрейта : Постоянный Битрейт : 192 Кбит/сек Каналы : 2 канала Расположение каналов : Front: L R Частота : 48,0 КГц Битовая глубина : 16 бит Метод сжатия : С потерями Размер потока : 120 Мбайт (4%) Заголовок : Гаврилов (ранний) Язык : Russian Default : Нет Forced : Нет Аудио #3 Идентификатор : 4 Формат : AC-3 Формат/Информация : Audio Coding 3 Расширение режима : CM (complete main) Параметр Endianness формата : Big Идентификатор кодека : A_AC3 Продолжительность : 1 ч. 27 м. Вид битрейта : Постоянный Битрейт : 192 Кбит/сек Каналы : 2 канала Расположение каналов : Front: L R Частота : 48,0 КГц Битовая глубина : 16 бит Метод сжатия : С потерями Размер потока : 120 Мбайт (4%) Заголовок : НТВ Язык : Russian Default : Нет Forced : Нет Аудио #4 Идентификатор : 5 Формат : AC-3 Формат/Информация : Audio Coding 3 Расширение режима : CM (complete main) Параметр Endianness формата : Big Идентификатор кодека : A_AC3 Продолжительность : 1 ч. 27 м. Вид битрейта : Постоянный Битрейт : 192 Кбит/сек Каналы : 1 канал Расположение каналов : Front: C Частота : 48,0 КГц Битовая глубина : 16 бит Метод сжатия : С потерями Размер потока : 120 Мбайт (4%) Язык : English Default : Нет Forced : Нет Общее Полное имя : D:TorrentsPolicejskaja.akademija.7.Filmov.iz.7.x264.BDRip.(AVC)-MediaClub4MVO.1+1.ac3 Формат : AC-3 Формат/Информация : Audio Coding 3 Размер файла : 120 Мбайт Продолжительность : 1 ч. 27 м. Режим общего битрейта : Постоянный Общий поток : 192 Кбит/сек Аудио Формат : AC-3 Формат/Информация : Audio Coding 3 Расширение режима : CM (complete main) Параметр Endianness формата : Big Продолжительность : 1 ч. 27 м. Вид битрейта : Постоянный Битрейт : 192 Кбит/сек Каналы : 2 канала Расположение каналов : Front: L R Частота : 48,0 КГц Битовая глубина : 16 бит Метод сжатия : С потерями Размер потока : 120 Мбайт (100%) Общее Полное имя : D:TorrentsPolicejskaja.akademija.7.Filmov.iz.7.x264.BDRip.(AVC)-MediaClub4MVO.ЛАЗЕР ВИДЕО.ac3 Формат : AC-3 Формат/Информация : Audio Coding 3 Размер файла : 240 Мбайт Продолжительность : 1 ч. 27 м. Режим общего битрейта : Постоянный Общий поток : 384 Кбит/сек Аудио Формат : AC-3 Формат/Информация : Audio Coding 3 Расширение режима : CM (complete main) Параметр Endianness формата : Big Продолжительность : 1 ч. 27 м. Вид битрейта : Постоянный Битрейт : 384 Кбит/сек Каналы : 5 каналов Расположение каналов : Front: L C R, Side: L R Частота : 48,0 КГц Битовая глубина : 16 бит Метод сжатия : С потерями Размер потока : 240 Мбайт (100%) Общее Полное имя : D:TorrentsPolicejskaja.akademija.7.Filmov.iz.7.x264.BDRip.(AVC)-MediaClub4MVO.РОССИЯ.ac3 Формат : AC-3 Формат/Информация : Audio Coding 3 Размер файла : 120 Мбайт Продолжительность : 1 ч. 27 м. Режим общего битрейта : Постоянный Общий поток : 192 Кбит/сек Аудио Формат : AC-3 Формат/Информация : Audio Coding 3 Расширение режима : CM (complete main) Параметр Endianness формата : Big Продолжительность : 1 ч. 27 м. Вид битрейта : Постоянный Битрейт : 192 Кбит/сек Каналы : 2 канала Расположение каналов : Front: L R Частота : 48,0 КГц Битовая глубина : 16 бит Метод сжатия : С потерями Размер потока : 120 Мбайт (100%) Общее Полное имя : D:TorrentsPolicejskaja.akademija.7.Filmov.iz.7.x264.BDRip.(AVC)-MediaClub4Гаврилов4.ac3 Формат : AC-3 Формат/Информация : Audio Coding 3 Размер файла : 120 Мбайт Продолжительность : 1 ч. 27 м. Режим общего битрейта : Постоянный Общий поток : 192 Кбит/сек Аудио Формат : AC-3 Формат/Информация : Audio Coding 3 Расширение режима : CM (complete main) Параметр Endianness формата : Big Продолжительность : 1 ч. 27 м. Вид битрейта : Постоянный Битрейт : 192 Кбит/сек Каналы : 1 канал Расположение каналов : Front: C Частота : 48,0 КГц Битовая глубина : 16 бит Метод сжатия : С потерями Размер потока : 120 Мбайт (100%) Общее Полное имя : D:TorrentsPolicejskaja.akademija.7.Filmov.iz.7.x264.BDRip.(AVC)-MediaClub4Карусель4.ac3 Формат : AC-3 Формат/Информация : Audio Coding 3 Размер файла : 120 Мбайт Продолжительность : 1 ч. 27 м. Режим общего битрейта : Постоянный Общий поток : 192 Кбит/сек Аудио Формат : AC-3 Формат/Информация : Audio Coding 3 Расширение режима : CM (complete main) Параметр Endianness формата : Big Продолжительность : 1 ч. 27 м. Вид битрейта : Постоянный Битрейт : 192 Кбит/сек Каналы : 1 канал Расположение каналов : Front: C Частота : 48,0 КГц Битовая глубина : 16 бит Метод сжатия : С потерями Размер потока : 120 Мбайт (100%) Общее Уникальный идентификатор : 248692294128920289979885497447548831501 (0xBB1864C449DA0377B4F7C6A238B5C70D) Полное имя : D:TorrentsPolicejskaja.akademija.7.Filmov.iz.7.x264.BDRip.(AVC)-MediaClubPolicejskaja.akademija.Film.5.1988.x264.BDRip.(AVC)-MediaClub.mkv Формат : Matroska Версия формата : Version 2 Размер файла : 2,68 Гбайт Продолжительность : 1 ч. 29 м. Общий поток : 4268 Кбит/сек Название фильма : -=Released by Kortec for MediaClub=- Дата кодирования : UTC 2014-01-14 20:43:07 Программа кодирования : mkvmerge v4.0.0 ('The Stars were mine') сборка от Jun 6 2010 16:18:42 Библиотека кодирования : libebml v1.0.0 + libmatroska v1.0.0 Видео Идентификатор : 1 Формат : AVC Формат/Информация : Advanced Video Codec Профиль формата : High@L4.1 Параметр CABAC формата : Да Параметр ReFrames формата : 9 кадров Идентификатор кодека : V_MPEG4/ISO/AVC Продолжительность : 1 ч. 29 м. Битрейт : 3500 Кбит/сек Ширина : 1024 пикселя Высота : 576 пикселей Соотношение сторон : 16:9 Режим частоты кадров : Постоянный Частота кадров : 23,976 кадра/сек Цветовое пространство : YUV Субдискретизация насыщенности : 4:2:0 Битовая глубина : 8 бит Тип развёртки : Прогрессивная Бит/(Пиксели*Кадры) : 0.247 Размер потока : 2,14 Гбайт (80%) Библиотека кодирования : x264 core 130 r2273 b3065e6 Настройки программы : cabac=1 / ref=9 / deblock=1:-2:-2 / analyse=0x3:0x133 / me=umh / subme=11 / psy=1 / psy_rd=1.00:0.10 / mixed_ref=1 / me_range=32 / chroma_me=1 / trellis=2 / 8x8dct=1 / cqm=0 / deadzone=21,11 / fast_pskip=0 / chroma_qp_offset=-3 / threads=6 / lookahead_threads=1 / sliced_threads=0 / nr=0 / decimate=0 / interlaced=0 / bluray_compat=0 / constrained_intra=0 / bframes=8 / b_pyramid=2 / b_adapt=2 / b_bias=0 / direct=3 / weightb=1 / open_gop=0 / weightp=2 / keyint=240 / keyint_min=23 / scenecut=40 / intra_refresh=0 / rc=2pass / mbtree=0 / bitrate=3500 / ratetol=1.0 / qcomp=0.60 / qpmin=0 / qpmax=69 / qpstep=4 / cplxblur=20.0 / qblur=0.5 / ip_ratio=1.40 / pb_ratio=1.30 / aq=1:0.80 Язык : English Default : Нет Forced : Нет Аудио #1 Идентификатор : 2 Формат : AC-3 Формат/Информация : Audio Coding 3 Расширение режима : CM (complete main) Параметр Endianness формата : Big Идентификатор кодека : A_AC3 Продолжительность : 1 ч. 29 м. Вид битрейта : Постоянный Битрейт : 192 Кбит/сек Каналы : 2 канала Расположение каналов : Front: L R Частота : 48,0 КГц Битовая глубина : 16 бит Метод сжатия : С потерями Размер потока : 123 Мбайт (4%) Заголовок : DUB Язык : Russian Default : Да Forced : Да Аудио #2 Идентификатор : 3 Формат : AC-3 Формат/Информация : Audio Coding 3 Расширение режима : CM (complete main) Параметр Endianness формата : Big Идентификатор кодека : A_AC3 Продолжительность : 1 ч. 29 м. Вид битрейта : Постоянный Битрейт : 192 Кбит/сек Каналы : 1 канал Расположение каналов : Front: C Частота : 48,0 КГц Битовая глубина : 16 бит Метод сжатия : С потерями Размер потока : 123 Мбайт (4%) Заголовок : Михалев Язык : Russian Default : Нет Forced : Нет Аудио #3 Идентификатор : 4 Формат : AC-3 Формат/Информация : Audio Coding 3 Расширение режима : CM (complete main) Параметр Endianness формата
[+] Скриншоты
[+] О релизеРип: Kortec Релиз-группа: MediaClub За исходник спасибо HDClub
Релиз от:

Всего файлов в раздаче: 49 
1\AVO.ВОЛОДАРСКИЙ.ac3132.43 MB
1\AVO.ЯРОЦКИЙ.ac3132.42 MB
1\DVO.ac3132.43 MB
1\DVO.ЮНИВЕРСАЛ.ac3132.43 MB
1\FDV1.ac3132.43 MB
1\MVO.1+1.ac3132.43 MB
1\MVO.ВГТРК.ac3132.43 MB
1\MVO.ИНТЕР.ac3132.42 MB
1\Карусель1.ac3132.43 MB
2\AVO.ВОЛОДАРСКИЙ.ac3119.71 MB
Показать все файлы

Похожие раздачи по запросу - Полицейская
2024-06-26 magnet Полицейская академия: Антология / Police Academy: Antology (1984-1994) BDRip-AVC от R.G. HD-Films | 60 fps 26.78 GB ↑ 0 ↓ 0

Комментарии


Зарегистрируйтесь чтобы добавить комментарий
Торрент клиент
byTorrent - программа для загрузки торрент-файлов.

Скачать byTorrent.exe (1,5 МБ)

Скачать byTorrent.zip (0,6 МБ)

Поддержи torrent.by
российских рублей
(300 российских рублей это 4$)

Обратная связь rss

End game ©