↑↓torrent.by
Поиск
Логин:  Регистрация
Пароль:

Kehlani - Crash [24-bit Hi-Res] (2024) FLAC

download Скачать торрент-файл   magnet Магнитная ссылка Размер: 510.54 MB Добавлен: 2024-06-26 05:00
Пиры будут получены из сети DHT
Последний сидер был замечен 2024-07-02 04:17
Название: Crash Исполнитель: Kehlani Год: 2024 Жанр: Funk, Soul, RnB Издатель (лейбл): TSNMI - Atlantic Продолжительность: 00:43:03 Формат/Кодек: FLAC Тип рипа: Tracks Битрейт аудио: Lossless Разрядность: 24 Bit/44,1 kHz
[+] Трек-лист 01. Groovetheory (00:04:08) 02. Next 2 U (00:02:42) 03. After Hours (00:03:22) 04. What I Want (00:03:47) 05. Crash (00:02:36) 06. 8 (00:02:30) 07. Sucia (feat. Jill Scott & Young Miko) (00:04:22) 08. Better Not (00:02:44) 09. Tears (feat. Omah Lay) (00:03:33) 10. Vegas (00:03:46) 11. Deep (00:02:49) 12. Chapel (00:03:58) 13. Lose My Wife (00:02:46)
[+] DRM foobar2000 1.5.5 / Замер динамического диапазона (DR) 1.1.1 ------------------------------------------------------------------------------- Анализ: Kehlani / Crash -------------------------------------------------------------------------------- DR Пики RMS Продолжительность трека -------------------------------------------------------------------------------- DR4 -0.01 дБ -5.93 дБ 4:08 01-Groovetheory DR4 -0.01 дБ -5.27 дБ 2:42 02-Next 2 U DR4 -0.01 дБ -5.05 дБ 3:22 03-After Hours DR3 0.00 дБ -4.34 дБ 3:47 04-What I Want DR3 -0.01 дБ -5.07 дБ 2:36 05-Crash DR5 -0.01 дБ -6.82 дБ 2:30 06-8 DR5 -0.01 дБ -6.15 дБ 4:22 07-Sucia (feat. Jill Scott & Young Miko) DR5 -0.01 дБ -6.17 дБ 2:44 08-Better Not DR3 -0.01 дБ -4.41 дБ 3:33 09-Tears (feat. Omah Lay) DR3 -0.01 дБ -4.53 дБ 3:46 10-Vegas DR3 -0.01 дБ -3.93 дБ 2:49 11-Deep DR4 -0.01 дБ -6.14 дБ 3:58 12-Chapel DR8 -0.01 дБ -10.32 дБ 2:46 13-Lose My Wife -------------------------------------------------------------------------------- Количество треков: 13 Реальные значения DR: DR4 Частота: 44100 Гц Каналов: 2 Разрядность: 24 Битрейт: 1533 кбит/с Кодек: FLAC ================================================================================
Время раздачи: 24/7 (минимум до появления первых 3-5 скачавших, на раздачи не возвращаюсь) Первое правило участника файлообмена: "Скачал сам - дай скачать другому!"

Всего файлов в раздаче: 14 
01. GrooveTheory.flac48.10 MB
02. Next 2 U.flac31.61 MB
03. After Hours.flac41.83 MB
04. What I Want.flac43.69 MB
05. Crash.flac31.04 MB
06. 8.flac31.54 MB
07. Sucia (feat. Jill Scott & Young Miko).flac51.64 MB
08. Better Not.flac32.37 MB
09. Tears (feat. Omah Lay).flac42.91 MB
10. Vegas.flac46.19 MB
Показать все файлы

Комментарии


Зарегистрируйтесь чтобы добавить комментарий
Торрент клиент
byTorrent - программа для загрузки торрент-файлов.

Скачать byTorrent.exe (1,5 МБ)

Скачать byTorrent.zip (0,6 МБ)

Поддержи torrent.by
российских рублей
(300 российских рублей это 4$)

Обратная связь rss

End game ©