↑↓torrent.by
Поиск
Логин:  Регистрация
Пароль:

Министерство неджентльменских дел / The Ministry of Ungentlemanly Warfare (2024) BDRip 1080p от Generalfilm | D

download Скачать торрент-файл   magnet Магнитная ссылка Размер: 6.26 GB Добавлен: 2024-06-26 05:00
Пиры будут получены из сети DHT
Последний сидер был замечен вчера в 13:21
Министерство неджентльменских дел / The Ministry of Ungentlemanly Warfare Информация о фильме Год выпуска: 2024 Страна: США, Великобритания, Турция Студия: Black Bear Pictures, Jerry Bruckheimer Films, Lionsgate Жанр: боевик, драма, военный, история Перевод: Дублированный | Мосфильм-Мастер Продолжительность: 02:00:21 Субтитры: Русские | Forced Режиссер: Гай Ричи В ролях: Генри Кавилл, Алан Ричсон, Рори Киннер, Генри Голдинг, Фредди Фокс, Эйса Гонсалес, Алекс Петтифер, Хиро Файнс Тиффин, Тиль Швайгер, Кэри Элвес О фильме: 1942 год, Великобритания. Они — лучшие из лучших. Отпетые авантюристы и первоклассные спецы, привыкшие действовать в одиночку. Но когда на кону стоит судьба всего мира, им приходится объединиться в сверхсекретное боевое подразделение и отправиться на выполнение дерзкой миссии против нацистов. Теперь их дело — война, и вести они её будут совершенно не по-джентльменски. Качество: BDRip 1080p Формат: MKV Видео: MPEG-4 AVC, 1920x800 (2.40:1), 23,976 fps, 7000 Kbit/s (0.190 bit/pixel) Аудио: русский, AC3, 5.1, 48 kHz, 448 kbps | Мосфильм-Мастер Навигация по главам: есть Релиз от:
[+] ОтчетМедиаИнфо General Unique ID : 217265791483587011673134550183040721065 (0xA373DE8F17C3E3448566D2F8FA5F20A9) Complete name : E:GFThe.Ministry.of.Ungentlemanly.Warfare.2024.BDRip.1080p.Rip.by.HardwareMining.R.G.Generalfilm.mkv Format : Matroska Format version : Version 4 File size : 6.26 GiB Duration : 2 h 0 min Overall bit rate : 7 445 kb/s Frame rate : 23.976 FPS Movie name : The.Ministry.of.Ungentlemanly.Warfare.2024.BDRip.1080p.Rip.by.HardwareMining.R.G.Generalfilm Encoded date : 2024-06-23 14:02:30 UTC Writing application : mkvmerge v6.8.0 ('Theme for Great Cities') 32bit built on Mar 2 2014 21:27:07 Writing library : libebml v1.3.0 + libmatroska v1.4.1 Cover : Yes Attachments : cover.png Video ID : 1 Format : AVC Format/Info : Advanced Video Codec Format profile : High@L4.1 Format settings : CABAC / 4 Ref Frames Format settings, CABAC : Yes Format settings, Reference frames : 4 frames Codec ID : V_MPEG4/ISO/AVC Duration : 2 h 0 min Bit rate : 7 000 kb/s Width : 1 920 pixels Height : 800 pixels Display aspect ratio : 2.40:1 Frame rate mode : Constant Frame rate : 23.976 FPS Color space : YUV Chroma subsampling : 4:2:0 Bit depth : 8 bits Scan type : Progressive Bits/(Pixel*Frame) : 0.190 Stream size : 5.76 GiB (92%) Writing library : x264 core 130 r2273 b3065e6 Encoding settings : cabac=1 / ref=4 / deblock=1:-2:-1 / analyse=0x3:0x133 / me=umh / subme=10 / psy=1 / psy_rd=1.00:0.08 / mixed_ref=1 / me_range=32 / chroma_me=1 / trellis=2 / 8x8dct=1 / cqm=0 / deadzone=21,11 / fast_pskip=0 / chroma_qp_offset=-3 / threads=48 / lookahead_threads=6 / sliced_threads=0 / nr=0 / decimate=1 / interlaced=0 / bluray_compat=0 / constrained_intra=0 / bframes=11 / b_pyramid=2 / b_adapt=2 / b_bias=0 / direct=3 / weightb=1 / open_gop=0 / weightp=2 / keyint=250 / keyint_min=25 / scenecut=40 / intra_refresh=0 / rc=2pass / mbtree=0 / bitrate=7000 / ratetol=1.0 / qcomp=0.60 / qpmin=0 / qpmax=69 / qpstep=4 / cplxblur=20.0 / qblur=0.5 / ip_ratio=1.40 / pb_ratio=1.30 / aq=2:1.00 Language : English Default : Yes Forced : No Color range : Limited Color primaries : BT.709 Transfer characteristics : BT.709 Matrix coefficients : BT.709 Audio ID : 2 Format : E-AC-3 Format/Info : Enhanced AC-3 Commercial name : Dolby Digital Plus Codec ID : A_EAC3 Duration : 2 h 0 min Bit rate mode : Constant Bit rate : 448 kb/s Channel(s) : 6 channels Channel layout : L R C LFE Ls Rs Sampling rate : 48.0 kHz Frame rate : 31.250 FPS (1536 SPF) Compression mode : Lossy Stream size : 386 MiB (6%) Title : Dub | Мосфильм-Мастер Language : Russian Service kind : Complete Main Default : Yes Forced : No Dialog Normalization : -31 dB compr : -0.28 dB dmixmod : Lo/Ro ltrtcmixlev : -3.0 dB ltrtsurmixlev : -3.0 dB lorocmixlev : -3.0 dB lorosurmixlev : -3.0 dB dialnorm_Average : -31 dB dialnorm_Minimum : -31 dB dialnorm_Maximum : -31 dB Text ID : 3 Format : UTF-8 Codec ID : S_TEXT/UTF8 Codec ID/Info : UTF-8 Plain Text Title : Forced Language : Russian Default : Yes Forced : No Menu 00:00:00.000 : en:Глава 01 00:07:21.357 : en:Глава 02 00:17:44.438 : en:Глава 03 00:24:01.231 : en:Глава 04 00:34:43.164 : en:Глава 05 00:41:41.373 : en:Глава 06 00:49:37.307 : en:Глава 07 00:56:07.739 : en:Глава 08 01:04:16.894 : en:Глава 09 01:08:11.670 : en:Глава 10 01:12:43.317 : en:Глава 11 01:20:31.785 : en:Глава 12 01:26:37.692 : en:Глава 13 01:33:49.624 : en:Глава 14 01:40:57.551 : en:Глава 15 01:46:29.257 : en:Глава 16
[+] Скриншоты

Всего файлов в раздаче: 1 
The.Ministry.of.Ungentlemanly.Warfare.2024.BDRip.1080p.Rip.by.HardwareMining.R.G.Generalfilm.mkv6.26 GB

Похожие раздачи по запросу - Министерство
2024-07-02 magnet Министерство неджентльменских дел / The Ministry of Ungentlemanly Warfare (2024) BDRip-HEVC 1080p от RIPS CLUB | D, P, P2, L2, A 6.47 GB ↑ 0 ↓ 12
2024-06-27 magnet Министерство неджентльменских дел / The Ministry of Ungentlemanly Warfare (2024) BDRip 2160p | 4K | HDR10+ | D, P, P2, A 34.72 GB ↑ 0 ↓ 4
2024-06-23 magnet Министерство неджентльменских дел / The Ministry of Ungentlemanly Warfare (2024) BDRemux 1080p | D, P, P2, A 35.97 GB ↑ 0 ↓ 1
2024-06-22 magnet Министерство неджентльменских дел / The Ministry of Ungentlemanly Warfare (2024) BDRip от AR-Team | D 1.47 GB ↑ 0 ↓ 1
2024-06-20 magnet Министерство неджентльменских дел / The Ministry of Ungentlemanly Warfare (2024) UHD BDRemux 2160p | 4K | HDR10 | D, P, P2, A 72.43 GB ↑ 0 ↓ 2
2024-06-20 magnet Министерство неджентльменских дел / The Ministry of Ungentlemanly Warfare (2024) BDRip от DoMiNo & селезень | D | Мосфильм-Мастер 1.46 GB ↑ 0 ↓ 0
2024-06-19 magnet Министерство неджентльменских дел / The Ministry of Ungentlemanly Warfare (2024) BDRip от MegaPeer | D 1.46 GB ↑ 0 ↓ 0

Комментарии


Зарегистрируйтесь чтобы добавить комментарий
Торрент клиент
byTorrent - программа для загрузки торрент-файлов.

Скачать byTorrent.exe (1,5 МБ)

Скачать byTorrent.zip (0,6 МБ)

Поддержи torrent.by
российских рублей
(300 российских рублей это 4$)

Обратная связь rss

End game ©